<?xml version="1.0" standalone="no"?>
<!DOCTYPE svg PUBLIC "-//W3C//DTD SVG 1.1//EN" "http://www.w3.org/Graphics/SVG/1.1/DTD/svg11.dtd" >
<svg xmlns="http://www.w3.org/2000/svg">
<metadata>Generated by IcoMoon</metadata>
<defs>
<font id="icomoon" horiz-adv-x="1024">
<font-face units-per-em="1024" ascent="960" descent="-64" />
<missing-glyph horiz-adv-x="1024" />
<glyph unicode="&#x20;" horiz-adv-x="512" d="" />
<glyph unicode="&#xe900;" glyph-name="alarm-clock" d="M605.558 480.578c-8.868 8.858-23.238 8.858-32.1-0.002l-42.612-42.612c-5.874 2.178-12.22 3.374-18.844 3.374-6.628 0-12.98-1.198-18.858-3.382l-87.586 87.59c-8.862 8.858-23.232 8.858-32.092 0-8.862-8.862-8.864-23.232 0-32.096l87.594-87.596c-2.178-5.87-3.372-12.216-3.372-18.836 0-29.95 24.366-54.318 54.318-54.318s54.318 24.366 54.318 54.318c0 6.624-1.196 12.974-3.376 18.852l42.612 42.612c8.86 8.862 8.86 23.232-0.002 32.096zM512.002 373.552c-7.428 0-13.47 6.044-13.47 13.47s6.044 13.47 13.47 13.47c7.428 0 13.47-6.044 13.47-13.47-0.002-7.428-6.044-13.47-13.47-13.47zM779.915 731.083l25.712 36.72 103.082-72.18c3.84-2.692 8.392-4.106 13.016-4.106 1.312 0 2.63 0.114 3.94 0.344 5.928 1.044 11.196 4.4 14.648 9.332 52.026 74.302 33.904 177.079-40.396 229.109-74.302 52.034-177.083 33.906-229.105-40.396-7.19-10.266-4.692-24.416 5.572-31.604l92.068-64.468-25.718-36.73c-66.976 41.908-146.067 66.176-230.731 66.176s-163.753-24.268-230.731-66.176l-25.72 36.73 92.068 64.468c10.266 7.19 12.762 21.338 5.574 31.604-52.026 74.304-154.803 92.426-229.107 40.398-74.302-52.026-92.426-154.803-40.4-229.107 3.452-4.932 8.722-8.288 14.648-9.332 1.31-0.234 2.628-0.344 3.94-0.344 4.624 0 9.178 1.416 13.016 4.106l103.082 72.18 25.712-36.72c-102.384-79.91-168.343-204.423-168.343-344.067 0-151.857 78.008-285.819 196.039-363.979l-35.94-51.328c-7.19-10.264-4.692-24.416 5.572-31.604 3.962-2.776 8.5-4.108 12.996-4.108 7.152 0 14.194 3.374 18.608 9.68l37.972 54.23c60.194-31.382 128.561-49.158 201.011-49.158 72.442 0 140.803 17.772 200.991 49.146l37.964-54.22c4.414-6.304 11.456-9.682 18.608-9.682 4.494 0 9.036 1.332 12.996 4.108 10.266 7.19 12.76 21.338 5.572 31.604l-35.93 51.314c118.042 78.158 196.057 212.125 196.057 363.991 0.006 139.649-65.952 264.163-168.341 344.069zM722.781 881.218c40.176 38.85 103.658 45.128 151.105 11.91 47.448-33.226 63.258-95.028 40.492-146.065l-191.597 134.155zM109.628 747.061c-22.768 51.038-6.958 112.842 40.492 146.065 20.75 14.528 44.56 21.502 68.154 21.502 30.354 0 60.346-11.55 82.95-33.412l-191.595-134.155zM512.002-3.856c-215.531 0-390.876 175.345-390.876 390.876s175.345 390.874 390.876 390.874 390.876-175.345 390.876-390.874-175.347-390.876-390.876-390.876zM512.002 707.861c-176.911 0-320.841-143.929-320.841-320.841s143.929-320.841 320.841-320.841 320.839 143.929 320.839 320.841-143.927 320.841-320.839 320.841zM725.281 205.835l-15.334 15.332c-8.862 8.86-23.232 8.86-32.092 0-8.862-8.862-8.862-23.232 0-32.092l15.332-15.334c-43.462-36.978-98.318-60.94-158.491-65.79v21.824c0 12.532-10.16 22.694-22.694 22.694s-22.694-10.162-22.694-22.694v-21.824c-60.176 4.85-115.030 28.812-158.493 65.79l15.334 15.334c8.862 8.862 8.862 23.232 0 32.092s-23.232 8.86-32.096 0l-15.334-15.334c-36.978 43.462-60.94 98.318-65.79 158.493h21.824c12.534 0 22.694 10.16 22.694 22.694s-10.16 22.694-22.694 22.694h-21.824c4.85 60.176 28.812 115.030 65.79 158.493l15.334-15.334c4.432-4.43 10.24-6.646 16.046-6.646s11.616 2.218 16.046 6.646c8.862 8.862 8.862 23.232 0 32.096l-15.334 15.334c43.462 36.978 98.318 60.94 158.493 65.79v-21.826c0-12.532 10.16-22.694 22.694-22.694s22.694 10.162 22.694 22.694v21.826c60.176-4.85 115.030-28.812 158.491-65.79l-15.332-15.334c-8.862-8.862-8.862-23.232 0-32.096 4.432-4.43 10.24-6.646 16.046-6.646s11.616 2.218 16.046 6.646l15.334 15.332c36.978-43.462 60.938-98.316 65.788-158.491h-21.824c-12.534 0-22.694-10.16-22.694-22.694s10.164-22.694 22.696-22.694h21.824c-4.846-60.176-28.808-115.030-65.786-158.491z" />
<glyph unicode="&#xe901;" glyph-name="atomic" d="M538.803 557.485c-72.682 0-131.816-59.134-131.816-131.816 0-72.686 59.134-131.818 131.816-131.818 72.688 0 131.822 59.134 131.822 131.818-0.002 72.682-59.134 131.816-131.822 131.816zM538.803 343.729c-45.182 0-81.938 36.758-81.938 81.94s36.758 81.938 81.938 81.938c45.182 0 81.942-36.758 81.942-81.938s-36.758-81.94-81.942-81.94zM1020.594 653.577c9.708 71.34-1.436 132.020-32.232 176.842 5.040 11.126 7.87 23.458 7.87 36.446 0 48.886-39.77 88.658-88.658 88.658-33.036 0-61.892-18.178-77.142-45.042-83.522 4.174-185.784-26.516-291.633-87.666-180.724 104.446-344.349 116.992-429.229 32.082-36.89-36.89-55.996-89.674-55.908-153.444-31.532-13.602-53.662-44.982-53.662-81.444 0-48.886 39.772-88.658 88.658-88.658 0.514 0 1.020 0.030 1.532 0.040 13.636-34.68 30.884-70.114 51.46-105.724-104.446-180.722-116.99-344.347-32.084-429.227 37.458-37.468 90.232-55.964 153.054-55.962 79.548 0.002 175.202 29.686 276.177 88.040 100.984-58.36 196.628-88.040 276.183-88.040 62.82 0 115.61 18.494 153.072 55.956 84.9 84.902 72.334 248.536-32.14 429.247 45.952 79.548 75.182 158.080 84.682 227.896zM907.574 905.644c21.382 0 38.78-17.398 38.78-38.78s-17.398-38.78-38.78-38.78-38.78 17.398-38.78 38.78 17.396 38.78 38.78 38.78zM819.132 860.978c3.042-46.15 41.534-82.774 88.442-82.774 16.982 0 32.858 4.808 46.354 13.12 18.462-33.52 24.43-78.216 17.244-131.026-7.712-56.686-30.166-120.386-65.316-186.048-40.072 60.776-88.23 119.448-143.624 174.846-55.392 55.392-114.082 103.562-174.89 143.668 85.144 45.656 165.552 69.336 231.79 68.214zM88.658 581.229c-21.382 0-38.78 17.396-38.78 38.78 0 21.382 17.398 38.78 38.78 38.78s38.78-17.398 38.78-38.78c0.002-21.382-17.396-38.78-38.78-38.78zM137.952 546.357c23.722 15.928 39.366 42.996 39.366 73.652 0 43.806-31.948 80.274-73.762 87.382 1.010 47.522 15.084 86.036 41.284 112.238 63.772 63.79 196.828 52.574 345.375-26.89-60.796-40.1-119.468-88.262-174.848-143.642-55.388-55.388-103.552-114.066-143.652-174.864-13.026 24.332-24.3 48.44-33.764 72.124zM144.834 31.708c-63.79 63.77-52.574 196.828 26.89 345.371 40.098-60.794 88.26-119.466 143.642-174.848 55.382-55.38 114.054-103.542 174.848-143.642-148.548-79.458-281.601-90.674-345.379-26.882zM350.637 237.503c-59.418 59.416-110.104 122.656-150.842 188.164 40.734 65.506 91.422 128.744 150.842 188.164 59.418 59.418 122.656 110.106 188.164 150.842 65.506-40.738 128.746-91.424 188.164-150.842 59.436-59.438 110.116-122.674 150.818-188.164-40.7-65.486-91.38-128.726-150.818-188.164-59.418-59.418-122.658-110.106-188.164-150.842-65.506 40.736-128.748 91.424-188.164 150.842zM932.782 31.706c-63.792-63.786-196.854-52.574-345.399 26.886 60.794 40.098 119.466 88.26 174.848 143.642 55.398 55.398 103.552 114.070 143.622 174.842 79.482-148.536 90.712-281.591 26.93-345.369z" />
<glyph unicode="&#xe902;" glyph-name="bar-chart" d="M999.808 46.786h-975.616c-13.362 0-24.192-10.83-24.192-24.192 0-13.358 10.83-24.192 24.192-24.192h975.616c13.358 0 24.192 10.834 24.192 24.192 0 13.36-10.83 24.192-24.192 24.192zM936.74 783.39h-169.896c-13.358 0-24.192-10.834-24.192-24.192v-164.48h-121.514v278.688c0 13.358-10.834 24.192-24.192 24.192h-169.9c-13.358 0-24.192-10.834-24.192-24.192v-457.764h-121.514v205.638c0 13.362-10.834 24.192-24.192 24.192h-169.896c-13.362 0-24.192-10.83-24.192-24.192v-463.126c0-13.362 10.834-24.192 24.192-24.192h849.486c13.362 0 24.192 10.834 24.192 24.192v601.044c0.002 13.358-10.828 24.192-24.19 24.192zM232.958 182.346h-121.514v414.742h121.514v-414.742zM402.858 182.346h-121.514v184.912h121.514v-184.912zM572.756 570.526v-388.18h-121.516v666.868h121.516v-278.688zM742.656 182.346h-121.514v363.988h121.514v-363.988zM912.552 182.346h-121.512v552.66h121.514v-552.66z" />
<glyph unicode="&#xe903;" glyph-name="battery-(1)" d="M979.314 567.062h-52.458v80.046c0 36.96-30.070 67.030-67.030 67.030h-792.796c-36.96 0-67.030-30.070-67.030-67.028v-398.218c0-36.96 30.070-67.030 67.030-67.030h792.798c36.96 0 67.030 30.070 67.030 67.030v80.046h52.458c24.64 0 44.686 20.046 44.686 44.686v148.752c-0.002 24.642-20.050 44.686-44.688 44.686zM705.482 226.548h-638.452c-12.32 0.002-22.344 10.026-22.344 22.346v398.216c0 12.32 10.024 22.344 22.344 22.344h638.452v-442.906zM859.828 226.55h-109.66v442.902h109.658c12.32 0 22.344-10.024 22.344-22.344v-398.218h0.002c-0.002-12.316-10.024-22.34-22.344-22.34zM979.314 373.626h-52.458v148.752h52.458l0.030-148.748c-0.004-0.002-0.012-0.004-0.030-0.004z" />
<glyph unicode="&#xe904;" glyph-name="battery" d="M979.314 567.060h-52.458v80.048c0 36.96-30.070 67.030-67.030 67.030h-792.796c-36.96 0-67.030-30.068-67.030-67.028v-398.218c0-36.96 30.070-67.030 67.030-67.030h792.798c36.96 0 67.030 30.070 67.030 67.030v80.048h52.458c24.64 0 44.686 20.046 44.686 44.686v148.75c-0.002 24.638-20.048 44.684-44.688 44.684zM226.754 226.548h-159.724c-12.32 0-22.344 10.024-22.344 22.344v398.218c0 12.32 10.024 22.344 22.344 22.344h159.724v-442.906zM882.17 248.89c0-12.32-10.024-22.344-22.344-22.344h-588.386v442.906h588.388c12.32 0 22.344-10.024 22.344-22.344v-398.218zM979.314 373.626h-52.458v148.75h52.458l0.030-148.75c-0.004 0.002-0.012 0-0.030 0zM727.444 477.548c-6.6 10.42-20.404 13.522-30.832 6.918l-97.466-61.742v91.162c0 8.146-4.432 15.646-11.572 19.574-7.134 3.926-15.846 3.658-22.73-0.7l-131.766-83.474c-10.424-6.604-13.522-20.408-6.918-30.832 6.6-10.42 20.404-13.522 30.832-6.918l97.466 61.746v-91.162c0-8.146 4.432-15.646 11.572-19.574 3.36-1.85 7.070-2.768 10.772-2.768 4.16 0 8.316 1.162 11.958 3.468l131.766 83.472c10.424 6.604 13.524 20.406 6.918 30.83z" />
<glyph unicode="&#xe905;" glyph-name="bell" d="M876.42 129.728l-49.954 93.756v231.538c0 143.13-96.124 264.222-227.206 302.138v115.576c0.002 48.118-39.142 87.264-87.26 87.264s-87.262-39.146-87.262-87.264v-115.578c-131.078-37.918-227.206-159.008-227.206-302.138v-231.536l-49.952-93.756c-9.62-18.054-9.076-39.304 1.452-56.846 10.53-17.538 29.028-28.010 49.486-28.010h198.316c3.378-60.602 53.732-108.872 115.166-108.872 61.432 0 111.788 48.27 115.166 108.872h198.318c20.456 0 38.954 10.472 49.486 28.010 10.524 17.542 11.068 38.792 1.45 56.846zM470.91 872.736c0 22.66 18.432 41.092 41.088 41.092s41.088-18.432 41.088-41.092v-105.936c-13.452 1.764-27.166 2.684-41.088 2.684-13.926 0-27.638-0.922-41.088-2.684v105.936zM243.706 455.022c0 147.936 120.356 268.294 268.294 268.294s268.294-120.358 268.294-268.294v-212.434h-536.588v212.434zM512-17.828c-35.962 0-65.59 27.584-68.87 62.7h137.744c-3.284-35.116-32.916-62.7-68.874-62.7zM835.38 96.648c-1.012-1.686-3.998-5.604-9.896-5.604h-626.966c-5.896 0-8.886 3.918-9.896 5.604-1.012 1.682-3.064 6.164-0.29 11.37l47.098 88.398h553.144l47.098-88.398c2.77-5.206 0.716-9.686-0.292-11.37zM512 661.774c-114.004 0-206.756-92.752-206.756-206.756 0-12.748 10.336-23.086 23.086-23.086s23.086 10.338 23.086 23.086c0 88.544 72.038 160.584 160.584 160.584 12.75 0 23.086 10.338 23.086 23.086 0 12.752-10.336 23.086-23.086 23.086z" />
<glyph unicode="&#xe906;" glyph-name="bluetooth" d="M698.598 300.836l-175.704 149.806 175.238 144.37c6.596 5.43 10.394 13.446 10.426 21.99 0.030 8.544-3.71 16.588-10.262 22.064l-184.928 154.638c-8.622 7.212-20.302 8.742-30.486 3.98-10.182-4.756-16.51-14.694-16.51-25.934v-272.914l-118.46 101c-9.254 7.89-23.154 6.782-31.044-2.468-7.89-9.256-6.784-23.156 2.47-31.046l134.994-115.1-134.71-110.98c-9.388-7.734-10.728-21.61-2.994-30.998 7.734-9.384 21.612-10.724 31-2.992l118.746 97.828v-279.828c0-11.24 6.324-21.178 16.51-25.934 3.926-1.836 8.078-2.736 12.192-2.736 6.55 0 13.002 2.284 18.298 6.712l185.024 154.804c6.478 5.422 10.216 13.378 10.256 21.826 0.036 8.446-3.628 16.434-10.056 21.912zM510.416 738.76l145.378-121.564-145.378-119.77v241.334zM510.416 157.248v246.158l145.718-124.24-145.718-121.918zM874.038 810.038c-96.704 96.702-225.278 149.962-362.038 149.962s-265.334-53.26-362.038-149.962c-96.706-96.704-149.962-225.278-149.962-362.038s53.256-265.334 149.962-362.038c96.704-96.702 225.278-149.962 362.038-149.962s265.334 53.26 362.038 149.962c96.706 96.704 149.962 225.276 149.962 362.038s-53.256 265.334-149.962 362.038zM512-19.958c-258.032 0-467.958 209.926-467.958 467.958s209.926 467.958 467.958 467.958 467.958-209.926 467.958-467.958-209.926-467.958-467.958-467.958z" />
<glyph unicode="&#xe907;" glyph-name="book" d="M860.952 960h-593.683c-70.016 0-126.976-56.964-126.976-126.98v-770.042c0-70.018 56.962-126.98 126.98-126.98h593.681c12.568 0 22.758 10.188 22.758 22.758 0 0.482-0.044 0.954-0.072 1.43 0.030 0.476 0.072 0.946 0.072 1.43v975.626c-0.002 12.57-10.194 22.758-22.76 22.758zM244.512-15.23c-33.876 9.878-58.704 41.186-58.704 78.206v672.735c16.532-13.862 36.634-23.578 58.704-27.59v-723.351zM267.269 751.558c-44.918 0-81.462 36.546-81.462 81.462s36.546 81.462 81.462 81.462h496.377c-18.502-22.066-29.672-50.48-29.672-81.462s11.17-59.396 29.672-81.462h-496.377zM690.269 706.040v-133.524l-27.176 20.236c-8.070 6.010-19.128 6.008-27.198-0.010l-27.448-20.468v133.766h81.822zM838.194-18.484h-548.167v724.523h272.905v-179.126c0-8.61 4.858-16.482 12.554-20.342 3.228-1.62 6.722-2.416 10.202-2.416 4.816 0 9.602 1.528 13.61 4.516l50.216 37.448 49.924-37.176c6.904-5.142 16.118-5.946 23.806-2.084 7.692 3.862 12.546 11.732 12.546 20.338v178.844h102.404v-724.525zM838.194 754.814c-33.876 9.876-58.706 41.186-58.706 78.208s24.83 68.328 58.704 78.204v-156.412zM675.747 415.087h-223.276c-12.57 0-22.758-10.188-22.758-22.758 0-12.572 10.192-22.758 22.758-22.758h223.276c12.568 0 22.758 10.188 22.758 22.758s-10.192 22.758-22.758 22.758zM739.347 272.469h-350.477c-12.57 0-22.758-10.188-22.758-22.758s10.188-22.758 22.758-22.758h350.477c12.568 0 22.758 10.188 22.758 22.758s-10.188 22.758-22.758 22.758z" />
<glyph unicode="&#xe908;" glyph-name="box" d="M978.67 855.158h-933.34c-24.994 0-45.33-20.334-45.33-45.33v-101.516c0-24.996 20.336-45.33 45.33-45.33h9.838v-576.812c0-24.996 20.336-45.33 45.33-45.33h823c24.996 0 45.33 20.336 45.33 45.33v576.812h9.838c24.996 0 45.33 20.336 45.33 45.33v101.516c0.004 24.996-20.332 45.33-45.326 45.33zM923.5 86.17h-823v576.812h823.002l0.028-576.808c0-0.002-0.010-0.004-0.030-0.004zM978.67 708.314h-933.34v101.514h933.34l0.030-101.512c0-0.002-0.010-0.002-0.030-0.002zM587.55 364.726v49.354c0 41.66-33.892 75.552-75.55 75.552s-75.552-33.892-75.552-75.552v-49.354c-28.812-6.968-50.282-32.958-50.282-63.88v-77.9c0-36.242 29.486-65.73 65.73-65.73h120.21c36.244 0 65.73 29.488 65.73 65.73v77.9c-0.002 30.924-21.472 56.912-50.286 63.88zM477.246 414.080c0 19.164 15.59 34.754 34.754 34.754s34.752-15.592 34.752-34.754v-47.504h-69.508v47.504zM597.038 222.948c0-13.748-11.186-24.932-24.932-24.932h-120.21c-13.746 0-24.932 11.182-24.932 24.932v77.9c0 13.746 11.186 24.932 24.932 24.932h120.21c13.746 0 24.932-11.186 24.932-24.932v-77.9zM381.212 594.624h-197.176c-11.266 0-20.398-9.132-20.398-20.398s9.132-20.398 20.398-20.398h197.178c11.264 0 20.396 9.134 20.396 20.398 0.002 11.266-9.13 20.398-20.398 20.398zM282.624 505.384h-98.588c-11.266 0-20.398-9.132-20.398-20.398s9.132-20.398 20.398-20.398h98.586c11.266 0 20.398 9.132 20.398 20.398s-9.13 20.398-20.396 20.398z" />
<glyph unicode="&#xe909;" glyph-name="calculator" d="M898.786 960h-773.572c-33.426 0-60.618-27.194-60.618-60.618v-902.762c0-33.426 27.194-60.618 60.618-60.618h773.572c33.426 0 60.618 27.194 60.618 60.618v902.762c0 33.424-27.192 60.618-60.618 60.618zM113.090 899.382c0 6.684 5.438 12.124 12.124 12.124h773.572c6.684 0 12.124-5.438 12.124-12.124v-210.2h-797.82v210.2zM346.7-15.502h-221.486c-6.684-0.002-12.124 5.438-12.124 12.122v291.788h233.61v-303.91zM346.7 336.902h-233.61v303.784h233.61v-303.784zM628.804-15.506h-233.61v303.914h233.61v-303.914zM628.804 336.902h-233.61v303.784h233.61v-303.784zM910.91-3.38c0-6.684-5.442-12.126-12.124-12.126h-221.488v656.192h233.612v-644.066zM289.842 513.040h-35.7v35.7c0 13.392-10.856 24.248-24.248 24.248s-24.248-10.856-24.248-24.248v-35.7h-35.7c-13.392 0-24.248-10.858-24.248-24.248s10.856-24.248 24.248-24.248h35.7v-35.702c0-13.392 10.856-24.248 24.248-24.248s24.248 10.856 24.248 24.248v35.702h35.7c13.392 0 24.248 10.858 24.248 24.248s-10.856 24.248-24.248 24.248zM573.146 513.040h-122.294c-13.392 0-24.248-10.858-24.248-24.248s10.856-24.248 24.248-24.248h122.294c13.39 0 24.248 10.858 24.248 24.248s-10.858 24.248-24.248 24.248zM264.186 136.388l29.27 29.27c9.468 9.468 9.468 24.822 0 34.294-9.468 9.466-24.822 9.466-34.294 0l-29.27-29.27-29.27 29.27c-9.468 9.466-24.822 9.466-34.294 0-9.468-9.468-9.468-24.822 0-34.294l29.272-29.27-29.27-29.27c-9.468-9.468-9.468-24.822 0-34.29 4.736-4.734 10.94-7.102 17.146-7.102 6.204 0 12.412 2.368 17.146 7.102l29.27 29.27 29.27-29.27c4.736-4.734 10.94-7.102 17.146-7.102s12.412 2.368 17.146 7.102c9.468 9.468 9.468 24.822 0 34.29l-29.268 29.27zM575.552 199.95c-9.472 9.466-24.82 9.466-34.294 0l-92.832-92.832c-9.466-9.468-9.466-24.822 0.002-34.294 4.736-4.734 10.94-7.102 17.146-7.102s12.412 2.37 17.146 7.102l92.832 92.832c9.468 9.47 9.468 24.824 0 34.294zM486.258 182.798c0-11.423-9.261-20.684-20.684-20.684s-20.684 9.261-20.684 20.684c0 11.423 9.261 20.684 20.684 20.684s20.684-9.261 20.684-20.684zM579.098 89.978c0-11.421-9.259-20.68-20.68-20.68s-20.68 9.259-20.68 20.68c0 11.421 9.259 20.68 20.68 20.68s20.68-9.259 20.68-20.68zM855.368 379.154h-123.942c-13.39 0-24.248-10.856-24.248-24.248 0-13.39 10.858-24.248 24.248-24.248h123.942c13.39 0 24.248 10.858 24.248 24.248 0 13.392-10.856 24.248-24.248 24.248zM855.368 294.522h-123.942c-13.39 0-24.248-10.858-24.248-24.248s10.858-24.248 24.248-24.248h123.942c13.39 0 24.248 10.858 24.248 24.248s-10.856 24.248-24.248 24.248z" />
<glyph unicode="&#xe90a;" glyph-name="calendar" d="M852.796 561.344c0-13.595-11.021-24.616-24.616-24.616s-24.616 11.021-24.616 24.616c0 13.595 11.021 24.616 24.616 24.616s24.616-11.021 24.616-24.616zM694.708 561.344c0-13.595-11.021-24.616-24.616-24.616s-24.616 11.021-24.616 24.616c0 13.595 11.021 24.616 24.616 24.616s24.616-11.021 24.616-24.616zM536.618 561.344c0-13.595-11.021-24.616-24.616-24.616s-24.616 11.021-24.616 24.616c0 13.595 11.021 24.616 24.616 24.616s24.616-11.021 24.616-24.616zM378.53 561.344c0-13.595-11.021-24.616-24.616-24.616s-24.616 11.021-24.616 24.616c0 13.595 11.021 24.616 24.616 24.616s24.616-11.021 24.616-24.616zM220.44 561.344c0-13.595-11.021-24.616-24.616-24.616s-24.616 11.021-24.616 24.616c0 13.595 11.021 24.616 24.616 24.616s24.616-11.021 24.616-24.616zM852.796 403.254c0-13.595-11.021-24.616-24.616-24.616s-24.616 11.021-24.616 24.616c0 13.595 11.021 24.616 24.616 24.616s24.616-11.021 24.616-24.616zM694.708 403.254c0-13.595-11.021-24.616-24.616-24.616s-24.616 11.021-24.616 24.616c0 13.595 11.021 24.616 24.616 24.616s24.616-11.021 24.616-24.616zM536.618 403.254c0-13.595-11.021-24.616-24.616-24.616s-24.616 11.021-24.616 24.616c0 13.595 11.021 24.616 24.616 24.616s24.616-11.021 24.616-24.616zM220.44 403.254c0-13.595-11.021-24.616-24.616-24.616s-24.616 11.021-24.616 24.616c0 13.595 11.021 24.616 24.616 24.616s24.616-11.021 24.616-24.616zM852.796 245.166c0-13.595-11.021-24.616-24.616-24.616s-24.616 11.021-24.616 24.616c0 13.595 11.021 24.616 24.616 24.616s24.616-11.021 24.616-24.616zM694.708 245.166c0-13.595-11.021-24.616-24.616-24.616s-24.616 11.021-24.616 24.616c0 13.595 11.021 24.616 24.616 24.616s24.616-11.021 24.616-24.616zM536.618 245.166c0-13.595-11.021-24.616-24.616-24.616s-24.616 11.021-24.616 24.616c0 13.595 11.021 24.616 24.616 24.616s24.616-11.021 24.616-24.616zM378.53 245.166c0-13.595-11.021-24.616-24.616-24.616s-24.616 11.021-24.616 24.616c0 13.595 11.021 24.616 24.616 24.616s24.616-11.021 24.616-24.616zM220.44 245.166c0-13.595-11.021-24.616-24.616-24.616s-24.616 11.021-24.616 24.616c0 13.595 11.021 24.616 24.616 24.616s24.616-11.021 24.616-24.616zM428.2 498.7h-148.58c-11.688 0-21.16-9.472-21.16-21.16v-148.582c0-11.688 9.472-21.16 21.16-21.16h148.58c11.688 0 21.16 9.472 21.16 21.16v148.578c0 11.69-9.474 21.164-21.16 21.164zM407.040 350.12h-106.26v106.258h106.258v-106.258zM953.466 781.772h-155.418v27.158c0 12.986-10.526 23.512-23.512 23.512-12.982 0-23.512-10.528-23.512-23.512v-27.158h-128.002v27.158c0 12.986-10.528 23.512-23.512 23.512-12.986 0-23.512-10.528-23.512-23.512v-27.158h-127.998v27.158c0 12.986-10.526 23.512-23.512 23.512s-23.512-10.528-23.512-23.512v-27.158h-128.002v27.158c0 12.986-10.526 23.512-23.512 23.512s-23.512-10.528-23.512-23.512v-27.158h-155.42c-38.888 0-70.53-31.64-70.53-70.532v-577.146c0-38.892 31.642-70.534 70.534-70.534h882.934c38.892 0 70.534 31.642 70.534 70.534v577.146c-0.002 38.892-31.646 70.532-70.536 70.532zM953.466 110.58h-882.932c-12.964 0-23.512 10.548-23.512 23.512v577.148c0 12.964 10.548 23.512 23.512 23.512h155.418v-27.156c0-12.982 10.526-23.512 23.512-23.512s23.512 10.528 23.512 23.512v27.156h128.002v-27.156c0-12.982 10.526-23.512 23.512-23.512s23.512 10.528 23.512 23.512v27.156h127.998v-27.156c0-12.982 10.526-23.512 23.512-23.512 12.982 0 23.512 10.528 23.512 23.512v27.156h128.002v-27.156c0-12.982 10.528-23.512 23.512-23.512 12.986 0 23.512 10.528 23.512 23.512v27.156h155.418c12.964 0 23.512-10.548 23.512-23.512v-577.146h0.002c-0.004-12.966-10.552-23.514-23.516-23.514z" />
<glyph unicode="&#xe90b;" glyph-name="car" d="M954.56 573.352l-195.104 78.192c-32.48 13.026-66.696 19.622-101.708 19.622h-119.592c-42.844 0-85.69-10.26-123.886-29.694l-176.782-89.898-126.816-18.49c-30.74-4.482-58.844-19.894-79.176-43.41-20.314-23.498-31.496-53.548-31.496-84.602v-74.842c0-11.56 9.382-20.94 20.94-20.94h89.836c4.502-20.376 14.826-39.012 30.070-53.88 20.27-19.706 47.012-30.574 75.302-30.574 28.27 0 55.012 10.868 75.282 30.574 15.266 14.888 25.61 33.568 30.092 53.88h375.32c4.502-20.376 14.826-39.012 30.092-53.86 20.25-19.726 46.99-30.594 75.26-30.594 28.29 0 55.032 10.868 75.282 30.574 15.266 14.868 25.59 33.506 30.092 53.88h95.49c11.56 0 20.94 9.382 20.94 20.94v140.47c0.002 45.442-27.262 85.73-69.438 102.652zM743.876 612.678l150.606-60.372h-113.646l-50.028 65.146c4.378-1.466 8.734-3.058 13.068-4.774zM557.798 629.284h99.95c3.812 0 7.602-0.084 11.37-0.272l58.906-76.706h-170.226v76.978zM433.242 604.134c25.736 13.088 53.944 21.254 82.674 24.040v-75.868h-184.592l101.918 51.828zM113.478 491.076c-8.606-29.128-34.3-50.99-65.418-53.964 10.908 27.368 35.346 48.414 65.418 53.964zM216.128 266.716c-36.478 0-66.046 29.568-66.046 66.046s29.568 66.046 66.046 66.046 66.046-29.568 66.046-66.046c0.002-36.478-29.566-66.046-66.046-66.046zM802.218 266.716c-36.478 0-66.068 29.568-66.068 66.046s29.59 66.046 66.068 66.046c36.478 0 66.046-29.568 66.046-66.046s-29.568-66.046-66.046-66.046zM982.118 351.17h-73.586c-8.774 50.76-53.084 89.522-106.336 89.522-53.232 0-97.542-38.762-106.316-89.522h-373.394c-8.774 50.76-53.106 89.522-106.336 89.522-53.252 0-97.562-38.762-106.336-89.522h-67.932v43.724c59.326 0.544 108.284 45.19 115.592 102.694l88.056 12.836h524.984c0 0 0 0 0.020 0 0 0 0 0 0.020 0h132.512v-27.264c0-38.322 31.18-69.502 69.482-69.502h9.57v-62.488zM982.118 455.538h-9.57c-15.204 0-27.6 12.396-27.6 27.62v27.264h24.564c8.020-11.35 12.606-25.086 12.606-39.724v-15.16zM580.398 451.734h-138.892c-11.566 0-20.94-9.376-20.94-20.94s9.376-20.94 20.94-20.94h138.892c11.564 0 20.94 9.376 20.94 20.94s-9.376 20.94-20.94 20.94zM216.128 360.53c-15.328 0-27.746-12.438-27.746-27.768 0-15.328 12.418-27.768 27.746-27.768 15.35 0 27.768 12.438 27.768 27.768s-12.418 27.768-27.768 27.768zM802.218 360.53c-15.35 0-27.768-12.438-27.768-27.768 0-15.328 12.418-27.768 27.768-27.768 15.328 0 27.746 12.438 27.746 27.768s-12.418 27.768-27.746 27.768z" />
<glyph unicode="&#xe90c;" glyph-name="chat-(1)" d="M744.581 858.484h-686.919c-31.796 0-57.662-25.866-57.662-57.66v-412.113c0-31.794 25.866-57.662 57.662-57.662h44.542v-153.42c0-9.768 5.884-18.578 14.912-22.318 2.988-1.24 6.128-1.84 9.24-1.84 6.288 0 12.464 2.456 17.086 7.076l170.502 170.5h34.208c13.342 0 24.156 10.814 24.156 24.156 0 13.344-10.818 24.158-24.156 24.158 0 0-45.38-0.032-45.854-0.080-5.624-0.382-11.144-2.698-15.444-6.996l-136.338-136.338c0 0-0.042 120.784-0.12 121.41-1.090 12.332-11.434 22.004-24.048 22.004h-68.686c-5.156 0-9.348 4.194-9.348 9.348v412.115c0 5.156 4.194 9.348 9.348 9.348h686.919c5.156 0 9.348-4.194 9.348-9.348v-158.11c0-13.342 10.818-24.156 24.156-24.156s24.156 10.814 24.156 24.156v158.11c0 31.794-25.866 57.66-57.66 57.66zM966.34 563.015h-480.831c-31.794 0-57.662-25.866-57.662-57.662v-281.141c0-31.794 25.866-57.662 57.662-57.662h301.029l121.96-121.96c4.622-4.622 10.8-7.076 17.086-7.076 3.112 0 6.252 0.602 9.24 1.84 9.024 3.74 14.912 12.546 14.912 22.318v104.88h16.602c31.794 0 57.662 25.866 57.662 57.662v281.141c0.002 31.794-25.864 57.66-57.66 57.66zM975.69 224.213c0-5.154-4.194-9.348-9.348-9.348h-40.752c-12.712 0-23.108-9.824-24.062-22.294-0.062-0.528-0.102-72.58-0.102-72.58l-87.708 87.71c-0.092 0.092-0.188 0.178-0.28 0.27-0.344 0.336-0.67 0.628-0.978 0.89-4.252 3.728-9.806 6.006-15.902 6.006h-311.049c-5.156 0-9.348 4.194-9.348 9.348v281.141c0 5.156 4.194 9.348 9.348 9.348h480.833c5.154 0 9.348-4.194 9.348-9.348v-281.143zM725.929 388.939c-13.334 0-24.156-10.822-24.156-24.156s10.822-24.156 24.156-24.156c13.336 0 24.156 10.822 24.156 24.156s-10.822 24.156-24.156 24.156zM620.945 698.777c0 0-439.645 0-439.645 0-13.34 0-24.156-10.814-24.156-24.156s10.818-24.156 24.156-24.156h439.645c13.34 0 24.156 10.814 24.156 24.156s-10.816 24.156-24.156 24.156zM348.151 539.069h-166.85c-13.34 0-24.156-10.814-24.156-24.156s10.818-24.156 24.156-24.156h166.85c13.342 0 24.156 10.814 24.156 24.156s-10.816 24.156-24.156 24.156zM613.675 388.939c-13.332 0-24.156-10.822-24.156-24.156s10.824-24.156 24.156-24.156c13.336 0 24.156 10.822 24.156 24.156s-10.82 24.156-24.156 24.156zM838.16 388.939c-13.334 0-24.156-10.822-24.156-24.156s10.822-24.156 24.156-24.156c13.336 0 24.156 10.822 24.156 24.156s-10.822 24.156-24.156 24.156z" />
<glyph unicode="&#xe90d;" glyph-name="chat" d="M940.478 897.042h-856.954c-46.054 0-83.524-37.47-83.524-83.526v-501.061c0-46.058 37.47-83.528 83.526-83.528h48.83v-206.158c0-9.632 5.804-18.314 14.7-22 2.946-1.22 6.038-1.812 9.106-1.812 6.198 0 12.29 2.42 16.844 6.974l222.994 222.998h544.473c46.056 0 83.524 37.47 83.524 83.528v501.059c0.004 46.056-37.466 83.526-83.52 83.526zM940.478 276.555h-554.353c-6.16 0-11.756-2.36-15.982-6.198-0.038-0.034-0.082-0.076-0.12-0.11-0.29-0.266-0.586-0.526-0.862-0.808l-189.18-189.178v172.482c0 0.828-0.042 1.562-0.126 2.21-1.116 12.114-11.294 21.602-23.7 21.602h-72.63c-19.796 0-35.9 16.106-35.9 35.902v501.059c0 19.796 16.104 35.9 35.9 35.9h856.952c19.798 0 35.9-16.104 35.9-35.9v-501.061c0-19.794-16.104-35.9-35.898-35.9zM347.975 723.126h-138.798c-13.152 0-23.812-10.664-23.812-23.812 0-13.15 10.66-23.812 23.812-23.812h138.798c13.152 0 23.812 10.664 23.812 23.812 0 13.15-10.662 23.812-23.812 23.812zM595.477 586.799h-386.303c-13.152 0-23.812-10.664-23.812-23.812 0-13.15 10.66-23.812 23.812-23.812h386.303c13.15 0 23.812 10.66 23.812 23.812 0 13.148-10.662 23.812-23.812 23.812zM814.83 723.126h-327.815c-13.152 0-23.812-10.664-23.812-23.812 0-13.15 10.66-23.812 23.812-23.812h327.815c13.15 0 23.812 10.664 23.812 23.812 0 13.152-10.662 23.812-23.812 23.812zM814.83 586.799h-86.204c-13.15 0-23.812-10.664-23.812-23.812 0-13.152 10.664-23.812 23.812-23.812h86.204c13.15 0 23.812 10.66 23.812 23.812s-10.662 23.812-23.812 23.812zM424.815 450.469h-215.64c-13.152 0-23.812-10.66-23.812-23.812 0-13.15 10.66-23.812 23.812-23.812h215.64c13.152 0 23.812 10.664 23.812 23.812 0 13.152-10.66 23.812-23.812 23.812zM814.83 450.469h-263.479c-13.15 0-23.812-10.66-23.812-23.812 0-13.15 10.664-23.812 23.812-23.812h263.479c13.15 0 23.812 10.664 23.812 23.812 0 13.152-10.662 23.812-23.812 23.812z" />
<glyph unicode="&#xe90e;" glyph-name="checked" d="M899.432 480.316c-1.086 15.070-14.164 26.382-29.256 25.322-15.072-1.086-26.408-14.184-25.324-29.256 0.674-9.31 1.012-18.862 1.012-28.382 0-218.122-177.452-395.574-395.572-395.574s-395.572 177.454-395.572 395.574 177.452 395.572 395.574 395.572c86.382 0 168.42-27.336 237.24-79.050 12.082-9.076 29.23-6.642 38.308 5.436 9.080 12.080 6.646 29.232-5.434 38.308-78.378 58.894-171.782 90.024-270.116 90.024-248.29 0.002-450.292-202-450.292-450.29s202.002-450.29 450.294-450.29 450.29 201.998 450.29 450.29c0 10.828-0.39 21.7-1.152 32.316zM992.79 836.46c-41.616 41.614-109.332 41.614-150.948 0l-394.22-394.216-139.748 139.75c-41.616 41.614-109.332 41.614-150.948 0-41.616-41.616-41.616-109.332 0-150.948l240.682-240.682c13.79-13.79 31.902-20.684 50.014-20.684 18.114 0 36.226 6.894 50.016 20.684l495.152 495.152c41.612 41.614 41.612 109.326 0 150.944zM954.098 724.206l-495.154-495.156c-6.24-6.24-16.4-6.24-22.64 0l-240.682 240.684c-20.282 20.282-20.282 53.28 0 73.562 10.14 10.144 23.458 15.212 36.78 15.212s26.642-5.070 36.78-15.212l143.764-143.764c9.264-9.262 21.582-14.362 34.678-14.362 13.102 0 25.42 5.102 34.682 14.364l398.23 398.234c20.276 20.282 53.28 20.282 73.562 0 20.28-20.282 20.28-53.28 0-73.562z" />
<glyph unicode="&#xe90f;" glyph-name="cloud-computing-(1)" d="M811.932 569.777c-2.138 156.122-129.804 282.477-286.425 282.477-69.67 0-136.792-25.344-188.996-71.364-46.592-41.070-78.464-95.954-91.086-156.212-0.922 0.010-1.836 0.018-2.748 0.018-133.81 0-242.678-108.866-242.678-242.678s108.868-242.678 242.68-242.678h169.486c12.058 0 21.838 9.776 21.838 21.838s-9.78 21.838-21.838 21.838h-169.486c-109.732 0-199.004 89.272-199.004 199.002s89.272 199.002 199.004 199.002c5.846 0 12.026-0.314 18.896-0.96 11.644-1.090 22.098 7.192 23.684 18.792 7.864 57.64 36.322 110.654 80.134 149.276 44.222 38.984 101.084 60.452 160.112 60.452 133.87 0 242.778-108.91 242.778-242.778 0-4.82-0.358-9.788-0.736-15.048l-0.162-2.236c-0.454-6.424 1.95-12.722 6.574-17.208 4.618-4.486 10.976-6.702 17.394-6.060 5.808 0.586 11.668 0.88 17.416 0.88 94.594 0 171.556-76.96 171.556-171.556 0-94.594-76.96-171.554-171.556-171.554h-178.222c-12.058 0-21.838-9.776-21.838-21.838s9.78-21.838 21.838-21.838h178.222c118.678 0 215.232 96.55 215.232 215.23-0.002 117.614-94.842 213.504-212.068 215.202zM525.509 749.616c-91.316 0-169.484-68.242-181.828-158.734-1.63-11.95 6.738-22.96 18.686-24.59 1.002-0.136 1.996-0.204 2.978-0.204 10.75 0 20.118 7.94 21.608 18.888 9.406 68.96 68.972 120.964 138.554 120.964 12.062 0 21.838 9.776 21.838 21.838 0.002 12.060-9.776 21.838-21.836 21.838zM624.819 319.897l-79.436 70.96c-13.694 12.24-34.354 12.238-48.054 0.002l-79.436-70.964c-8.996-8.034-9.772-21.84-1.738-30.836 8.034-8.992 21.838-9.774 30.836-1.738l52.528 46.924v-268.661c0-12.062 9.776-21.838 21.838-21.838 12.060 0 21.838 9.776 21.838 21.838v268.665l52.53-46.926c4.164-3.722 9.362-5.552 14.54-5.552 6.004 0 11.98 2.458 16.296 7.29 8.030 8.996 7.252 22.8-1.742 30.836z" />
<glyph unicode="&#xe910;" glyph-name="cloud-computing" d="M811.932 585.067c-2.138 156.122-129.804 282.477-286.425 282.477-69.67 0-136.792-25.344-188.996-71.364-46.592-41.070-78.464-95.954-91.086-156.212-0.922 0.010-1.836 0.018-2.748 0.018-133.81-0.002-242.678-108.868-242.678-242.68s108.868-242.678 242.68-242.678h89.068c12.058 0 21.838 9.776 21.838 21.838s-9.78 21.838-21.838 21.838h-89.068c-109.732 0-199.004 89.272-199.004 199.002s89.272 199.002 199.004 199.002c5.846 0 12.026-0.314 18.896-0.96 11.644-1.080 22.098 7.192 23.684 18.792 7.864 57.64 36.322 110.654 80.134 149.276 44.222 38.984 101.084 60.452 160.112 60.452 133.87 0 242.778-108.91 242.778-242.778 0-4.82-0.898-17.284-0.898-17.284-0.454-6.424 1.95-12.722 6.574-17.208 4.618-4.486 10.976-6.698 17.394-6.060 5.808 0.586 11.668 0.88 17.416 0.88 94.594 0 171.556-76.96 171.556-171.556 0-94.594-76.96-171.554-171.556-171.554h-97.804c-12.058 0-21.838-9.776-21.838-21.838s9.78-21.838 21.838-21.838h97.804c118.678 0 215.232 96.55 215.232 215.23-0.002 117.616-94.842 213.504-212.068 215.204zM525.509 764.904c-91.316 0-169.484-68.242-181.828-158.734-1.63-11.95 6.742-22.924 18.686-24.59 12.736-1.776 23.096 7.738 24.59 18.686 9.404 68.958 68.968 120.96 138.552 120.96 12.062 0 21.838 9.776 21.838 21.838 0 12.064-9.778 21.84-21.838 21.84zM626.557 139.436c-8.034 8.992-21.84 9.774-30.836 1.736l-52.53-46.926v268.661c0 12.062-9.78 21.838-21.838 21.838-12.062 0-21.838-9.776-21.838-21.838v-268.659l-52.528 46.926c-8.992 8.036-22.802 7.254-30.834-1.736-8.036-8.996-7.26-22.798 1.736-30.836l79.434-70.966c6.85-6.122 15.438-9.18 24.028-9.18 8.588 0 17.178 3.060 24.026 9.178l79.438 70.966c8.998 8.034 9.776 21.84 1.742 30.836z" />
<glyph unicode="&#xe911;" glyph-name="cloud" d="M811.934 521.979c-2.14 156.126-129.808 282.477-286.427 282.477-69.672 0-136.792-25.346-188.996-71.364-46.592-41.068-78.464-95.952-91.086-156.21-0.922 0.010-1.836 0.018-2.748 0.018-133.812-0.002-242.678-108.866-242.678-242.68s108.866-242.678 242.678-242.678h566.091c118.68 0 215.23 96.55 215.232 215.228 0 117.62-94.84 213.508-212.066 215.208zM808.768 135.22h-566.091c-109.73 0-199.002 89.272-199.002 199.002s89.272 199.002 199.002 199.002c5.85 0 12.030-0.312 18.892-0.96 11.644-1.12 22.106 7.192 23.688 18.792 7.862 57.64 36.322 110.654 80.134 149.276 44.222 38.984 101.084 60.452 160.112 60.452 133.868 0 242.778-108.908 242.778-242.778 0-4.82-0.358-9.788-0.736-15.048l-0.16-2.238c-0.454-6.424 1.952-12.722 6.574-17.208 4.62-4.486 10.99-6.696 17.396-6.060 5.804 0.584 11.662 0.88 17.412 0.88 94.594 0 171.554-76.96 171.554-171.556s-76.958-171.556-171.552-171.556zM525.507 701.821c-91.316 0-169.484-68.24-181.826-158.734-1.63-11.952 6.738-22.96 18.686-24.59 1-0.138 1.996-0.204 2.978-0.204 10.748 0 20.118 7.94 21.61 18.89 9.406 68.958 68.97 120.962 138.55 120.962 12.062 0 21.838 9.78 21.838 21.838 0.002 12.060-9.774 21.838-21.836 21.838z" />
<glyph unicode="&#xe912;" glyph-name="compass" d="M511.998 694.21c-176.724 0-320.5-143.776-320.5-320.5s143.776-320.5 320.5-320.5 320.5 143.776 320.5 320.5c0 176.724-143.776 320.5-320.5 320.5zM532.758 95.498v26.75c0 11.466-9.294 20.76-20.76 20.76s-20.76-9.294-20.76-20.76v-26.75c-137.318 10.15-247.302 120.132-257.452 257.45h26.75c11.466 0 20.76 9.296 20.76 20.76 0 11.466-9.294 20.76-20.76 20.76h-26.75c10.15 137.32 120.132 247.302 257.452 257.452v-26.75c0-11.464 9.294-20.76 20.76-20.76s20.76 9.296 20.76 20.76v26.75c137.318-10.15 247.302-120.132 257.45-257.452h-26.748c-11.466 0-20.76-9.294-20.76-20.76 0-11.464 9.294-20.76 20.76-20.76h26.75c-10.152-137.316-120.134-247.3-257.452-257.45zM532.758 810.912v26.97h33.35c11.466 0 20.76 9.294 20.76 20.76v80.6c0 11.466-9.294 20.76-20.76 20.76h-108.23c-11.466 0-20.76-9.294-20.76-20.76v-80.6c0-11.466 9.294-20.76 20.76-20.76h33.364v-26.97c-231.752-10.876-416.952-202.81-416.952-437.202 0-241.354 196.354-437.71 437.71-437.71s437.71 196.356 437.71 437.71c0 234.392-185.202 426.326-416.952 437.202zM478.636 879.4v39.082h66.712v-39.082h-66.712zM511.998-20.296c-217.256 0-394.006 176.75-394.006 394.006s176.75 394.004 394.006 394.004 394.006-176.75 394.006-394.006c0.002-217.256-176.748-394.004-394.006-394.004zM664.82 526.524c-6.12 6.12-15.392 7.802-23.272 4.222l-189.94-86.336c-0.158-0.072-0.306-0.16-0.464-0.236-0.316-0.152-0.632-0.31-0.942-0.48-0.28-0.152-0.548-0.318-0.82-0.486-0.278-0.17-0.558-0.336-0.83-0.522-0.322-0.218-0.63-0.454-0.94-0.69-0.206-0.158-0.418-0.306-0.618-0.472-1.024-0.846-1.964-1.786-2.81-2.81-0.168-0.206-0.318-0.42-0.478-0.628-0.234-0.306-0.468-0.61-0.682-0.928-0.188-0.276-0.358-0.56-0.532-0.844-0.162-0.264-0.324-0.528-0.474-0.802-0.174-0.316-0.332-0.636-0.49-0.96-0.074-0.152-0.16-0.298-0.23-0.452l-86.336-189.94c-3.582-7.878-1.898-17.152 4.22-23.268 3.978-3.98 9.29-6.082 14.684-6.082 2.902 0 5.828 0.61 8.586 1.862l189.94 86.336c0.158 0.072 0.304 0.16 0.458 0.234 0.318 0.156 0.636 0.312 0.948 0.482 0.278 0.152 0.544 0.316 0.812 0.48 0.28 0.17 0.562 0.338 0.834 0.526 0.318 0.216 0.626 0.45 0.93 0.684 0.21 0.16 0.424 0.31 0.628 0.478 1.022 0.844 1.962 1.784 2.806 2.806 0.174 0.21 0.33 0.432 0.494 0.646 0.228 0.3 0.456 0.596 0.668 0.908 0.19 0.28 0.362 0.566 0.538 0.852 0.16 0.262 0.322 0.522 0.47 0.794 0.174 0.316 0.334 0.64 0.492 0.964 0.074 0.15 0.16 0.296 0.23 0.45l86.336 189.94c3.586 7.882 1.904 17.154-4.216 23.272zM415.664 277.376l51.034 112.274 61.24-61.24-112.274-51.034zM557.298 357.766l-61.24 61.24 112.274 51.034-51.034-112.274z" />
<glyph unicode="&#xe913;" glyph-name="credit-card" d="M938.512 608.994h-104.2v147.084c0 47.138-38.35 85.488-85.488 85.488h-663.336c-47.138-0.002-85.488-38.352-85.488-85.49v-383.572c0-47.138 38.35-85.488 85.488-85.488h104.204v-147.092c0-47.138 38.35-85.488 85.488-85.488h663.332c47.138 0 85.488 38.35 85.488 85.488v383.582c0 47.138-38.35 85.488-85.488 85.488zM48.85 756.076c0 20.202 16.436 36.638 36.638 36.638h663.336c20.202 0 36.638-16.436 36.638-36.638v-34.102h-736.612v34.102zM189.692 523.506v-187.638h-104.204c-20.202 0-36.638 16.436-36.638 36.638v187.486h149.040c-5.25-11.072-8.198-23.442-8.198-36.486zM48.85 608.842v64.28h736.612v-64.128h-510.282c-1.652 0-3.288-0.058-4.916-0.152h-221.414zM938.512 103.286h-663.332c-20.202 0-36.638 16.436-36.638 36.638v383.582c0 19.194 14.844 34.958 33.648 36.486h537.69c0.902 0 1.788 0.056 2.662 0.152h125.968c20.202 0 36.638-16.436 36.638-36.638v-383.582h0.002c0-20.202-16.436-36.638-36.638-36.638zM680.422 449.456c-27.784 0-53.332-9.694-73.49-25.848-20.666 16.648-46.418 25.862-73.658 25.862-64.93 0-117.754-52.824-117.754-117.754s52.824-117.754 117.754-117.754c27.242 0 52.992 9.214 73.658 25.858 20.158-16.154 45.706-25.85 73.49-25.85 64.924 0 117.742 52.82 117.742 117.744s-52.818 117.742-117.742 117.742zM575.906 277.598c-12.018-9.516-26.902-14.784-42.634-14.784-37.994-0.002-68.904 30.908-68.904 68.9 0 37.994 30.91 68.904 68.904 68.904 15.732 0 30.614-5.27 42.634-14.784-8.432-16.216-13.226-34.612-13.226-54.116 0-19.506 4.796-37.902 13.226-54.12zM680.422 262.822c-37.986 0-68.89 30.906-68.89 68.894 0 37.986 30.906 68.89 68.89 68.89 37.986 0 68.89-30.906 68.89-68.89 0-37.99-30.904-68.894-68.89-68.894z" />
<glyph unicode="&#xe914;" glyph-name="cursor" d="M1007.684 943.334c-0.060 0.060-0.108 0.124-0.168 0.184s-0.124 0.108-0.184 0.164c-15.936 15.804-38.796 20.552-59.72 12.37l-912.034-356.614c-24.112-9.426-38.238-33.032-35.16-58.734 3.086-25.704 22.392-45.298 48.046-48.756l445.754-60.116c0.834-0.114 1.502-0.778 1.616-1.618l60.116-445.75c3.458-25.654 23.052-44.964 48.756-48.046 2.348-0.282 4.674-0.416 6.978-0.416 22.916 0 43.188 13.668 51.756 35.574l356.618 912.044c8.178 20.92 3.432 43.776-12.374 59.714zM55.694 545.494c-1 0.136-1.45 0.194-1.624 1.642-0.172 1.448 0.252 1.616 1.186 1.978l853.308 333.654-399.11-399.114c-2.602 0.754-453.76 61.84-453.76 61.84zM613.116-8.746c-0.364-0.934-0.51-1.364-1.978-1.184-1.446 0.172-1.508 0.626-1.64 1.62 0 0-61.086 451.158-61.84 453.76l399.11 399.112-333.652-853.308z" />
<glyph unicode="&#xe915;" glyph-name="cutlery" d="M282.493 896.020c-30.94 41.256-72.71 63.974-117.614 63.974-44.902 0-86.67-22.72-117.612-63.972-29.426-39.234-45.63-91.032-45.63-145.854 0-54.824 16.204-106.62 45.632-145.854 17.21-22.946 37.776-40.136 60.36-50.892l-34.538-519.317c-1.684-25.306 7.29-50.442 24.618-68.96 17.33-18.522 41.818-29.146 67.182-29.146 25.358 0 49.834 10.618 67.158 29.13 17.328 18.52 26.302 43.66 24.614 68.972l-34.538 519.311c22.588 10.758 43.156 27.948 60.368 50.898 29.424 39.234 45.632 91.034 45.632 145.854s-16.204 106.622-45.632 145.856zM197.748-2.776c-8.6-9.192-20.27-14.254-32.858-14.254-12.598 0-24.276 5.066-32.884 14.264-8.604 9.2-12.884 21.184-12.050 33.75l33.908 509.867c3.652-0.306 7.318-0.516 11.016-0.516 3.696 0 7.36 0.212 11.010 0.516l33.908-509.867c0.834-12.572-3.442-24.562-12.050-33.76zM164.88 587.309c-8.414 0-16.616 1.29-24.528 3.678-0.656 0.242-1.32 0.464-2 0.648-51.366 16.862-89.744 81.518-89.744 158.532 0 89.798 52.16 162.858 116.272 162.858 64.114 0 116.276-73.058 116.276-162.858s-52.16-162.858-116.276-162.858zM1022.358 348.161v585.395l-0.198-0.086c0.678 5.174-0.348 10.606-3.306 15.392-6.82 11.032-21.29 14.446-32.328 7.626-95.81-59.234-153.018-161.832-153.036-274.457 0-0.016-0.002-0.030-0.002-0.044v-307.561c0-26.986 21.566-48.966 48.338-49.782v-318.041c0-38.746 31.522-70.268 70.268-70.268s70.27 31.522 70.27 70.268v341.441c-0.002 0.040-0.006 0.078-0.006 0.118zM883.348 371.531c-1.6 0.002-2.888 1.294-2.888 2.89v307.523c0 0.010 0.002 0.018 0.002 0.028 0 81.242 34.826 156.378 94.924 208.278v-518.719h-92.038zM975.392 6.598c0-12.846-10.45-23.298-23.3-23.298-12.846 0-23.298 10.45-23.298 23.298v317.961h46.598v-317.961zM665.597 959.994c-12.97 0-23.486-10.514-23.486-23.486v-266.799h-59.84v266.799c0 12.97-10.516 23.486-23.486 23.486s-23.486-10.514-23.486-23.486v-266.799h-59.84v266.799c0 12.97-10.516 23.486-23.486 23.486s-23.486-10.514-23.486-23.486v-339.967c0-38.28 31.146-69.428 69.428-69.428h4.178l-32.95-495.299c-1.654-24.704 7.102-49.248 24.026-67.34 16.926-18.098 40.84-28.476 65.614-28.476 24.77 0 48.684 10.378 65.612 28.474 16.922 18.090 25.678 42.636 24.026 67.332l-32.952 495.309h4.186c38.284 0 69.43 31.146 69.43 69.428v339.969c-0.004 12.97-10.52 23.484-23.488 23.484zM590.089-3.438c-8.196-8.764-19.316-13.59-31.308-13.59s-23.112 4.826-31.308 13.59c-8.192 8.758-12.264 20.164-11.464 32.126l33.156 498.429h19.23l33.158-498.435c0.8-11.956-3.27-23.362-11.464-32.12zM642.109 596.543c0.002-12.384-10.072-22.456-22.456-22.456h-93.244c-0.030-0.002-0.062 0.002-0.092 0h-28.4c-12.384 0-22.456 10.072-22.456 22.456v26.2h166.648v-26.2z" />
<glyph unicode="&#xe916;" glyph-name="download" d="M997.932 280.108c-14.394 0-26.068-11.674-26.068-26.068v-99.608c0-57.494-46.776-104.27-104.27-104.27h-711.188c-57.494 0-104.27 46.776-104.27 104.27v99.608c0 14.394-11.67 26.068-26.068 26.068s-26.068-11.672-26.068-26.068v-99.608c0-86.242 70.164-156.406 156.406-156.406h711.188c86.242 0 156.406 70.164 156.406 156.406v99.608c0 14.396-11.67 26.068-26.068 26.068zM839.666 177.4h-655.332c-14.394 0-26.068-11.674-26.068-26.068s11.67-26.068 26.068-26.068h655.33c14.398 0 26.068 11.67 26.068 26.068 0 14.394-11.67 26.068-26.066 26.068zM775.838 544.14c-9.59 10.734-26.068 11.668-36.808 2.076l-200.964-179.53v505.218c0 14.394-11.67 26.068-26.068 26.068-14.394 0-26.068-11.67-26.068-26.068v-505.218l-200.964 179.528c-10.734 9.592-27.214 8.656-36.808-2.076-9.588-10.738-8.662-27.218 2.074-36.808l218.348-195.054c12.374-11.058 27.892-16.584 43.416-16.584 15.518 0 31.038 5.526 43.416 16.578l218.348 195.060c10.74 9.596 11.668 26.076 2.078 36.81z" />
<glyph unicode="&#xe917;" glyph-name="edit" d="M795.472 803.244c13.648 0 24.716 11.066 24.716 24.716v77.986c0 29.804-24.234 54.054-54.028 54.054h-522.878c-6.554 0-12.84-2.606-17.478-7.24l-204.75-204.75c-4.634-4.634-7.24-10.922-7.24-17.476v-740.478c0.002-29.806 24.25-54.056 54.056-54.056h698.288c29.794 0 54.028 24.25 54.028 54.054v377.368c0.002 13.648-11.064 24.716-24.714 24.716-13.648 0-24.716-11.066-24.716-24.716v-377.368c0-2.548-2.062-4.622-4.594-4.622h-698.29c-2.548 0-4.622 2.074-4.622 4.622v715.76h150.72c29.796 0 54.032 24.24 54.032 54.034v150.72h498.158c2.534 0 4.594-2.074 4.594-4.622v-77.986c0-13.65 11.068-24.716 24.718-24.716zM218.57 759.85c0-2.538-2.064-4.602-4.6-4.602h-115.756l120.356 120.36v-115.758zM985.73 759.208l-29.082 29.078c-32.608 32.608-85.664 32.604-118.276 0l-230.846-230.846h-400.408c-13.65 0-24.716-11.066-24.716-24.716s11.066-24.716 24.716-24.716h350.976l-148.758-148.758h-202.218c-13.65 0-24.716-11.066-24.716-24.716s11.066-24.716 24.716-24.716h152.784l-0.398-0.398c-3.016-3.016-5.196-6.758-6.338-10.866l-38.176-137.494h-107.872c-13.65 0-24.716-11.066-24.716-24.716s11.066-24.716 24.716-24.716h126.664c0.002 0 5.418 0.612 6.214 0.82 0.13 0.034 155.994 43.284 155.994 43.284 4.108 1.14 7.852 3.324 10.866 6.338l478.876 478.87c32.604 32.604 32.604 85.66-0.002 118.268zM369.288 171.854l20.174 72.652 52.48-52.48-72.654-20.172zM489.38 214.496l-77.442 77.442 395.296 395.296 77.444-77.442-395.298-395.296zM950.774 675.892l-31.142-31.142-77.444 77.444 31.142 31.142c13.338 13.336 35.034 13.334 48.362 0l29.082-29.082c13.334-13.334 13.334-35.030 0-48.362z" />
<glyph unicode="&#xe918;" glyph-name="envelope" d="M1023.29 706.732c-0.042 28.898-23.564 52.378-52.454 52.378-0.024 0-0.048 0-0.068 0l-918.388-1.262c-14.010-0.018-27.176-5.492-37.070-15.412-9.892-9.922-15.328-23.104-15.31-37.11l0.71-516.057c0.018-14.010 5.492-27.176 15.412-37.070 9.902-9.876 23.052-15.31 37.038-15.31 0.024 0 0.050 0 0.070 0l918.386 1.262c28.916 0.040 52.414 23.598 52.38 52.522l-0.706 516.059zM913.22 706.58l-401.181-278.887-401.959 277.783 803.14 1.104zM681.691 375.059l237.942-184.53-815.942-1.12 239.392 185.65c11.444 8.878 13.528 25.35 4.652 36.798-8.878 11.444-25.35 13.528-36.798 4.652l-257.813-199.938-0.64 464.949 444.687-307.313c4.488-3.102 9.698-4.65 14.91-4.65 5.234 0 10.472 1.566 14.97 4.692l443.823 308.527 0.672-466.131-257.711 199.862c-11.438 8.874-27.918 6.792-36.794-4.652-8.878-11.444-6.796-27.92 4.652-36.796z" />
<glyph unicode="&#xe919;" glyph-name="eraser" d="M120.394 122.71h-65.252c-13.956 0-25.268-11.314-25.268-25.268s11.312-25.268 25.268-25.268h65.254c13.956 0 25.268 11.314 25.268 25.268-0.002 13.952-11.316 25.268-25.27 25.268zM228.41 25.276c-9.868 9.864-25.866 9.868-35.734 0l-46.14-46.14c-9.868-9.868-9.87-25.866 0-35.736 4.934-4.932 11.4-7.402 17.866-7.402s12.934 2.468 17.866 7.402l46.14 46.14c9.87 9.868 9.872 25.866 0.002 35.736zM968.86 110.076h-442.931l453.397 453.375c19.702 19.704 19.704 51.762 0.002 71.466l-310.285 310.307c-19.706 19.702-51.764 19.702-71.47 0l-495.979-495.979c-28.636-28.636-44.406-66.708-44.406-107.204 0-40.494 15.77-78.568 44.406-107.204l149.402-149.398c16.702-16.702 38.91-25.902 62.532-25.902h655.331c13.956 0 25.268 11.314 25.268 25.268 0.002 13.954-11.31 25.27-25.266 25.27zM313.529 110.076c-10.124 0-19.64 3.944-26.802 11.102l-149.398 149.398c-39.408 39.408-39.408 103.53 0 142.936l81.114 81.114 266.669-266.671c4.934-4.932 11.4-7.4 17.866-7.4s12.934 2.468 17.866 7.4c9.868 9.868 9.87 25.866 0.002 35.736l-266.667 266.669 379.129 379.133 310.283-310.309-489.133-489.107h-140.93z" />
<glyph unicode="&#xe91a;" glyph-name="eye" d="M1007.394 496.211c-57.47 73.686-131.912 134.636-215.274 176.256-85.096 42.486-176.642 64.53-272.207 65.686-2.632 0.072-13.2 0.072-15.832 0-95.564-1.158-187.112-23.2-272.207-65.686-83.362-41.62-157.8-102.568-215.272-176.256-22.14-28.386-22.14-68.036 0-96.422 57.47-73.686 131.91-134.636 215.272-176.256 85.096-42.486 176.642-64.53 272.207-65.686 2.632-0.072 13.2-0.072 15.832 0 95.564 1.158 187.112 23.2 272.207 65.686 83.362 41.62 157.802 102.568 215.274 176.256 22.14 28.39 22.14 68.036 0 96.422zM250.484 260.803c-77.84 38.864-147.356 95.784-201.034 164.606-10.374 13.302-10.374 31.88 0 45.182 53.676 68.822 123.192 125.742 201.034 164.606 22.108 11.036 44.684 20.58 67.678 28.66-59.156-53.176-96.426-130.24-96.426-215.856 0-85.62 37.272-162.69 96.434-215.864-22.994 8.080-45.576 17.628-67.686 28.666zM511.999 199.395c-137.084 0-248.608 111.524-248.608 248.608s111.524 248.606 248.608 248.606 248.608-111.524 248.608-248.608-111.524-248.606-248.608-248.606zM974.548 425.411c-53.676-68.822-123.192-125.742-201.034-164.606-22.082-11.024-44.644-20.526-67.61-28.598 59.116 53.174 96.358 130.214 96.358 215.796 0 85.628-37.28 162.702-96.446 215.878 23-8.082 45.586-17.638 67.7-28.68 77.84-38.864 147.356-95.784 201.034-164.606 10.372-13.304 10.372-31.882-0.002-45.184zM511.999 554.393c-58.664 0-106.39-47.726-106.39-106.39s47.726-106.39 106.39-106.39 106.39 47.726 106.39 106.39c0.002 58.664-47.724 106.39-106.39 106.39zM511.999 383.267c-35.694 0-64.736 29.038-64.736 64.736 0 35.696 29.038 64.734 64.736 64.734 35.694 0 64.734-29.038 64.734-64.734 0.002-35.698-29.040-64.736-64.734-64.736z" />
<glyph unicode="&#xe91b;" glyph-name="fast-forward" d="M955.212 703.89c-68.35 118.386-178.71 203.070-310.754 238.45-132.044 35.384-269.962 17.226-388.348-51.128-118.384-68.352-203.070-178.712-238.45-310.756-35.38-132.042-17.222-269.958 51.128-388.346s178.71-203.070 310.754-238.45c44.092-11.816 88.834-17.66 133.292-17.66 88.678 0.002 176.202 23.258 255.058 68.786 118.384 68.35 203.068 178.714 238.448 310.754 35.384 132.046 17.222 269.962-51.128 388.35zM954.862 329.334c-31.698-118.292-107.56-217.158-213.62-278.394s-229.616-77.496-347.908-45.806c-118.292 31.698-217.158 107.56-278.394 213.62-61.232 106.056-77.5 229.614-45.802 347.908 31.698 118.292 107.56 217.158 213.62 278.394s229.618 77.498 347.908 45.802c118.292-31.698 217.158-107.56 278.394-213.62 61.23-106.054 77.5-229.61 45.802-347.904zM851.174 489.884l-245.362 141.658c-15.142 8.744-33.224 8.744-48.364 0-15.142-8.74-24.18-24.4-24.18-41.882v-105.604c-2.454 2.174-5.152 4.134-8.082 5.826l-245.364 141.658c-15.142 8.744-33.224 8.744-48.364 0-15.142-8.74-24.18-24.4-24.18-41.882v-283.322c0-17.484 9.042-33.142 24.18-41.882 7.574-4.372 15.876-6.558 24.184-6.558 8.304 0 16.61 2.186 24.18 6.558l245.362 141.658c2.934 1.692 5.63 3.65 8.082 5.826v-105.604c0-17.484 9.042-33.142 24.18-41.882 7.574-4.372 15.876-6.558 24.184-6.558 8.304 0 16.61 2.186 24.18 6.558l245.362 141.658c15.144 8.74 24.18 24.4 24.18 41.886 0.002 17.484-9.034 33.148-24.178 41.888zM260.568 314.88v266.236l230.568-133.118-230.568-133.118zM586.56 314.88v266.236l230.568-133.118-230.568-133.118z" />
<glyph unicode="&#xe91c;" glyph-name="favorites" d="M944.416 556.576c18.542 18.074 25.088 44.6 17.088 69.226-8.002 24.626-28.89 42.236-54.514 45.958l-224.060 32.558c-4.398 0.638-8.2 3.4-10.168 7.388l-100.202 203.030c-11.458 23.22-34.662 37.644-60.556 37.644s-49.098-14.424-60.556-37.644l-100.202-203.032c-1.97-3.986-5.77-6.748-10.17-7.388l-224.056-32.556c-25.624-3.722-46.51-21.332-54.514-45.958s-1.456-51.152 17.088-69.226l162.13-158.038c3.182-3.104 4.636-7.574 3.884-11.956l-38.274-223.152c-4.376-25.522 5.916-50.828 26.864-66.048 20.948-15.224 48.204-17.19 71.12-5.144l200.402 105.358c3.936 2.070 8.634 2.070 12.572 0l200.404-105.358c9.968-5.24 20.754-7.83 31.488-7.828 13.94 0 27.792 4.368 39.626 12.974 20.948 15.222 31.242 40.53 26.864 66.048l-38.274 223.152c-0.75 4.382 0.702 8.852 3.884 11.956l162.132 158.036zM725.158 377.448l38.274-223.156c1.28-7.468-3.33-11.726-5.372-13.208-2.044-1.48-7.52-4.554-14.224-1.026l-200.404 105.358c-9.838 5.17-20.63 7.758-31.424 7.758s-21.588-2.588-31.424-7.756l-200.402-105.356c-6.708-3.526-12.182-0.456-14.224 1.026s-6.654 5.74-5.372 13.208l38.274 223.152c3.758 21.91-3.5 44.254-19.422 59.772l-162.13 158.038c-5.426 5.292-4.198 11.446-3.416 13.846 0.778 2.402 3.404 8.104 10.902 9.192l224.054 32.558c21.998 3.196 41.008 17.004 50.848 36.942l100.202 203.032c3.354 6.794 9.586 7.528 12.112 7.528 2.522 0 8.754-0.732 12.11-7.528v-0.002l100.202-203.032c9.838-19.938 28.846-33.746 50.844-36.942l224.058-32.558c7.498-1.088 10.122-6.79 10.902-9.192s2.010-8.558-3.418-13.846l-162.13-158.038c-15.92-15.516-23.178-37.86-19.42-59.77zM827.566 914.75c-12.072 8.768-28.962 6.092-37.73-5.976l-28.674-39.464c-8.768-12.068-6.094-28.962 5.976-37.73 4.798-3.482 10.352-5.16 15.856-5.16 8.354 0 16.59 3.862 21.874 11.134l28.674 39.464c8.768 12.070 6.094 28.964-5.976 37.732zM262.72 869.47l-28.674 39.464c-8.766 12.064-25.658 14.74-37.73 5.976-12.068-8.768-14.744-25.662-5.976-37.73l28.674-39.464c5.286-7.278 13.522-11.138 21.878-11.138 5.506 0 11.062 1.678 15.854 5.162 12.068 8.766 14.744 25.66 5.974 37.73zM99.104 346.342c-4.61 14.186-19.848 21.952-34.038 17.342l-46.394-15.076c-14.19-4.61-21.952-19.852-17.342-34.038 3.708-11.418 14.298-18.674 25.684-18.674 2.766 0 5.58 0.43 8.354 1.332l46.394 15.076c14.188 4.61 21.952 19.848 17.342 34.038zM512.010 46.428c-14.918 0-27.012-12.094-27.012-27.012v-48.784c0-14.918 12.094-27.012 27.012-27.012s27.012 12.094 27.012 27.012v48.784c0 14.92-12.092 27.012-27.012 27.012zM1005.328 348.57l-46.394 15.076c-14.184 4.606-29.428-3.154-34.038-17.344s3.152-29.428 17.342-34.038l46.394-15.076c2.774-0.9 5.586-1.328 8.352-1.328 11.388 0 21.978 7.258 25.686 18.674 4.61 14.188-3.154 29.426-17.342 34.036z" />
<glyph unicode="&#xe91d;" glyph-name="file-(1)" d="M846.158 960h-546.588c-36.204 0-65.654-29.452-65.654-65.656v-56.078h-74.876c-25.836 0-46.854-21.020-46.854-46.854v-808.56c0-25.836 21.020-46.852 46.854-46.852h584.17c25.836 0 46.854 21.018 46.854 46.852v74.882h56.092c36.204 0 65.658 29.454 65.658 65.658v770.952c0 36.204-29.454 65.656-65.656 65.656zM742.78-16.716h-583.31v807.702h376.468v-153.332c0-29.506 24.004-53.51 53.51-53.51h153.332v-600.86zM583.226 757.548l126.122-126.122h-119.898c-3.432 0-6.224 2.792-6.224 6.224v119.898zM846.158 105.020h-56.092v502.762c0 0.192-0.030 0.364-0.044 0.546-0.14 5.96-2.494 11.784-6.88 16.172l-206.844 206.842c-0.010 0.010-0.022 0.016-0.030 0.026-4.276 4.262-10.174 6.896-16.686 6.896h-278.384v56.080c0 10.128 8.24 18.37 18.37 18.37h546.586c10.13 0 18.372-8.24 18.372-18.37v-770.952h0.002c0.002-10.13-8.238-18.372-18.37-18.372z" />
<glyph unicode="&#xe91e;" glyph-name="file-(2)" d="M724.174 631.966h-424.344c-13.24 0-23.976-10.734-23.976-23.976s10.734-23.976 23.976-23.976h424.344c13.242 0 23.976 10.736 23.976 23.976 0 13.242-10.734 23.976-23.976 23.976zM724.174 487.29h-424.344c-13.24 0-23.976-10.736-23.976-23.976 0-13.242 10.734-23.976 23.976-23.976h424.344c13.242 0 23.976 10.736 23.976 23.976s-10.734 23.976-23.976 23.976zM895.874 753.122c-0.164 6.016-2.552 11.888-6.978 16.316l-183.38 183.38c-4.352 4.428-10.4 7.184-17.1 7.184h-509.846c-27.84 0-50.494-22.65-50.494-50.496l0.010-598.706c0-0.212 0.026-0.414 0.032-0.626 0.328-12.13 6.606-23.124 16.968-29.558l82.704-51.334c27.298-16.938 61.21-16.938 88.504 0.002l56.762 35.228c11.698 7.262 26.232 7.26 37.93 0.002l56.762-35.23c13.648-8.474 28.948-12.71 44.252-12.708 15.302 0 30.608 4.236 44.252 12.708l56.762 35.23c11.698 7.258 26.232 7.258 37.93 0l56.762-35.23c27.29-16.944 61.2-16.944 88.504 0l82.71 51.334c10.358 6.43 16.634 17.426 16.964 29.554 0.004 0.208 0.032 0.414 0.032 0.626l0.010 441.69c0.002 0.232-0.034 0.426-0.052 0.634zM712.386 878.13h0.002l101.668-101.668h-99.146c-1.39 0-2.524 1.134-2.524 2.524v99.144zM847.966 317.84l-77.040-47.816c-11.698-7.262-26.232-7.26-37.93-0.002l-56.762 35.232c-27.298 16.938-61.21 16.936-88.504-0.002l-56.762-35.23c-11.698-7.258-26.232-7.258-37.93 0l-56.762 35.23c-27.292 16.944-61.204 16.944-88.504 0l-56.762-35.23c-11.698-7.258-26.232-7.258-37.93 0l-77.040 47.818-0.012 591.664c0 1.402 1.142 2.544 2.542 2.544h485.866v-133.064c0-27.832 22.642-50.476 50.476-50.476h133.064l-0.010-410.668zM895.916 168.104c0.002 0.062-0.008 0.122-0.008 0.184s0.010 0.122 0.010 0.184c0 13.042-7.082 25.088-18.484 31.428-11.4 6.336-25.364 6.006-36.446-0.872l-70.88-43.988c-11.196-6.946-25.108-6.946-36.3-0.002l-58.394 36.242c-26.794 16.634-60.084 16.634-86.874 0l-58.394-36.24c-11.196-6.946-25.106-6.946-36.302-0.002l-58.394 36.242c-26.792 16.63-60.084 16.63-86.874 0l-58.39-36.24c-11.196-6.946-25.108-6.948-36.3 0l-70.878 43.988c-11.082 6.876-25.046 7.216-36.448 0.872-11.4-6.342-18.484-18.384-18.484-31.428 0-0.062 0.010-0.122 0.010-0.184s-0.010-0.122-0.010-0.184l-0.010-181.608c0-27.844 22.65-50.496 50.494-50.496h666.868c27.84 0 50.494 22.65 50.494 50.498l-0.006 181.606zM845.434-16.048h-666.864c-1.4 0-2.542 1.142-2.542 2.542l0.008 160.43 52.57-32.628c26.796-16.624 60.084-16.624 86.872 0.002l58.39 36.242c11.194 6.948 25.102 6.946 36.302 0l58.39-36.244c13.398-8.312 28.418-12.47 43.438-12.47 15.018 0 30.040 4.158 43.438 12.472l58.39 36.242c11.194 6.948 25.102 6.95 36.302 0l58.394-36.244c26.8-16.628 60.084-16.624 86.872 0l52.57 32.628 0.008-160.428c0.004-1.402-1.136-2.544-2.538-2.544z" />
<glyph unicode="&#xe91f;" glyph-name="file-(3)" d="M895.866 752.742c-0.068 6.152-2.448 12.18-6.97 16.704l-183.53 183.532c-0.008 0.008-0.014 0.010-0.022 0.016-4.334 4.33-10.322 7.006-16.932 7.006h-509.856c-27.834 0-50.476-22.64-50.476-50.474v-923.050c0-27.832 22.64-50.474 50.474-50.474h666.888c27.832 0 50.474 22.64 50.474 50.474v766.018c0.004 0.088-0.042 0.162-0.050 0.248zM712.388 878.138l101.668-101.668h-99.144c-1.39 0-2.524 1.134-2.524 2.524v99.144zM847.966-13.526c0-1.39-1.132-2.522-2.522-2.522h-666.888c-1.39 0-2.522 1.132-2.522 2.522v923.052c0 1.39 1.132 2.522 2.522 2.522h485.88v-133.054c0-27.832 22.644-50.478 50.478-50.478h133.054v-742.042zM724.176 631.972h-424.352c-13.24 0-23.976-10.734-23.976-23.976 0-13.24 10.736-23.976 23.976-23.976h424.35c13.24 0 23.976 10.736 23.976 23.976 0.002 13.242-10.736 23.976-23.974 23.976zM724.176 487.294h-424.352c-13.24 0-23.976-10.736-23.976-23.976s10.736-23.976 23.976-23.976h424.35c13.24 0 23.976 10.736 23.976 23.976 0.002 13.24-10.736 23.976-23.974 23.976zM724.176 342.618h-424.352c-13.24 0-23.976-10.736-23.976-23.976 0-13.242 10.736-23.976 23.976-23.976h424.35c13.24 0 23.976 10.734 23.976 23.976 0.002 13.238-10.736 23.976-23.974 23.976zM512 197.938h-212.176c-13.24 0-23.976-10.736-23.976-23.976 0-13.242 10.736-23.976 23.976-23.976h212.176c13.24 0 23.976 10.734 23.976 23.976s-10.736 23.976-23.976 23.976z" />
<glyph unicode="&#xe920;" glyph-name="file" d="M895.876 700.592c-0.178 5.994-2.566 11.842-6.98 16.256l-236.13 236.13c-0.010 0.010-0.020 0.014-0.028 0.024-4.338 4.324-10.32 6.998-16.924 6.998h-457.258c-27.834 0-50.476-22.64-50.476-50.474v-923.050c0-27.832 22.64-50.474 50.474-50.474h666.888c27.832 0 50.474 22.64 50.474 50.474v713.42c0.004 0.236-0.024 0.464-0.040 0.696zM659.79 878.138l154.27-154.27h-144.152c-5.58 0-10.118 4.538-10.118 10.118v144.152zM847.968-13.528c-0.002-1.388-1.134-2.52-2.524-2.52h-666.888c-1.39 0-2.522 1.132-2.522 2.522v923.052c0 1.39 1.132 2.522 2.522 2.522h433.282v-178.062c0-32.018 26.050-58.070 58.070-58.070h178.062v-689.444z" />
<glyph unicode="&#xe921;" glyph-name="filter" d="M960.318 868.38h-896.636c-35.114 0-63.682-28.566-63.682-63.68v-74.944c0-35.114 28.568-63.682 63.682-63.682h29.814l329.114-329.114v-288.112c0-8.586 5.172-16.326 13.104-19.612 2.626-1.086 5.384-1.616 8.118-1.616 5.526 0 10.956 2.156 15.016 6.218l137.118 137.12c3.98 3.982 6.218 9.38 6.218 15.010v150.996l329.108 329.11h29.028c35.114 0 63.682 28.568 63.682 63.682v74.944c-0.002 35.114-28.57 63.68-63.684 63.68zM565.936 360.758c-4.192-4.192-6.256-9.7-6.208-15.194v-150.808l-94.664-94.664v245.596c0.014 5.454-2.054 10.91-6.214 15.072l-305.314 305.314h717.714l-305.314-305.316zM981.546 729.756c0-11.704-9.522-21.228-21.228-21.228h-896.636c-11.704 0-21.228 9.522-21.228 21.228v74.944c0 11.704 9.522 21.228 21.228 21.228h896.638c11.704 0 21.228-9.522 21.228-21.228v-74.944z" />
<glyph unicode="&#xe922;" glyph-name="flag" d="M723.602 604.812l133.682 179.258c5.338 7.158 6.182 16.718 2.176 24.702s-12.172 13.024-21.106 13.024h-575.564v30.106c19.472 8.968 33.030 28.656 33.030 51.462-0.002 31.228-25.408 56.636-56.638 56.636s-56.638-25.408-56.638-56.636c0-22.804 13.554-42.49 33.022-51.46v-868.684h-29.922c-13.038 0-23.61-10.57-23.61-23.61s10.572-23.61 23.61-23.61h107.074c13.038 0 23.61 10.57 23.61 23.61s-10.572 23.61-23.61 23.61h-29.93v405.49h574.708c8.928 0 17.092 5.036 21.098 13.016 4.006 7.978 3.17 17.536-2.162 24.696l-132.83 178.39zM239.182 889.226c-7.796 0-14.136 6.342-14.136 14.138-0.002 7.794 6.34 14.136 14.136 14.136s14.138-6.342 14.138-14.136c0-7.796-6.344-14.138-14.138-14.138zM262.792 435.93v78.422h75.246c13.040 0 23.61 10.57 23.61 23.61s-10.57 23.61-23.61 23.61h-75.246v87.352h117.742c13.040 0 23.61 10.57 23.61 23.61s-10.57 23.61-23.61 23.61h-117.742v78.428h528.502l-116.066-155.638c-6.24-8.368-6.244-19.842-0.010-28.218l115.26-154.788h-527.686z" />
<glyph unicode="&#xe923;" glyph-name="folder-(1)" d="M970.194 799.8h-386.304c-7.728 0-15.222 2.788-21.088 7.838l-70.866 61.136c-13.686 11.786-31.156 18.276-49.19 18.276h-253.9c-29.668 0-53.806-24.138-53.806-53.806v-71.914h-81.234c-29.668 0.002-53.806-24.136-53.806-53.804v-644.772c0-29.668 24.138-53.806 53.806-53.806h781.346c29.668 0 53.806 24.138 53.806 53.806v71.898h81.236c29.668 0 53.806 24.138 53.806 53.806v557.536c0 29.67-24.138 53.806-53.806 53.806zM845.914 62.754c0-5.934-4.828-10.762-10.762-10.762h-781.346c-5.934 0-10.762 4.828-10.762 10.762v442.39h802.868v-442.39zM845.914 548.188h-802.87v159.336c0 5.934 4.828 10.762 10.762 10.762h253.886c7.738 0 15.224-2.782 21.084-7.836l70.868-61.12c13.672-11.79 31.142-18.284 49.196-18.284h386.312c5.934 0 10.762-4.828 10.762-10.762v-72.096zM980.956 188.458c0-5.934-4.828-10.762-10.762-10.762h-81.236v442.59c0 29.668-24.138 53.806-53.806 53.806h-386.312c-7.738 0-15.228 2.782-21.084 7.836l-70.868 61.12c-13.672 11.79-31.142 18.284-49.196 18.284h-129.608v71.914c0 5.934 4.828 10.762 10.762 10.762h253.9c7.728 0 15.222-2.788 21.088-7.838l70.866-61.136c13.686-11.786 31.156-18.276 49.19-18.276h386.306c5.934 0 10.762-4.828 10.762-10.762v-557.538zM536.834 300.090h-70.832v70.832c0 11.886-9.636 21.522-21.522 21.522s-21.522-9.636-21.522-21.522v-70.832h-70.832c-11.886 0-21.522-9.636-21.522-21.522s9.636-21.522 21.522-21.522h70.832v-70.832c0-11.886 9.636-21.522 21.522-21.522s21.522 9.636 21.522 21.522v70.832h70.832c11.886 0 21.522 9.636 21.522 21.522 0.002 11.888-9.634 21.522-21.522 21.522z" />
<glyph unicode="&#xe924;" glyph-name="folder-(2)" d="M970.194 799.8h-386.304c-7.728 0-15.222 2.788-21.088 7.838l-70.866 61.136c-13.686 11.786-31.156 18.276-49.19 18.276h-253.9c-29.668 0-53.806-24.138-53.806-53.806v-71.914h-81.234c-29.668 0.002-53.806-24.136-53.806-53.804v-644.772c0-29.668 24.138-53.806 53.806-53.806h781.346c29.668 0 53.806 24.138 53.806 53.806v71.898h81.236c29.668 0 53.806 24.138 53.806 53.806v557.536c0 29.67-24.138 53.806-53.806 53.806zM845.914 62.754c0-5.934-4.828-10.762-10.762-10.762h-781.346c-5.934 0-10.762 4.828-10.762 10.762v442.39h802.868v-442.39zM845.914 548.188h-802.87v159.336c0 5.934 4.828 10.762 10.762 10.762h253.886c7.738 0 15.224-2.782 21.084-7.836l70.868-61.12c13.672-11.79 31.142-18.284 49.196-18.284h386.312c5.934 0 10.762-4.828 10.762-10.762v-72.096zM980.956 188.458c0-5.934-4.828-10.762-10.762-10.762h-81.236v442.59c0 29.668-24.138 53.806-53.806 53.806h-386.312c-7.738 0-15.228 2.782-21.084 7.836l-70.868 61.12c-13.672 11.79-31.142 18.284-49.196 18.284h-129.608v71.914c0 5.934 4.828 10.762 10.762 10.762h253.9c7.728 0 15.222-2.788 21.088-7.838l70.866-61.136c13.686-11.786 31.156-18.276 49.19-18.276h386.306c5.934 0 10.762-4.828 10.762-10.762v-557.538zM536.834 300.090h-70.832v70.832c0 11.886-9.636 21.522-21.522 21.522s-21.522-9.636-21.522-21.522v-70.832h-70.832c-11.886 0-21.522-9.636-21.522-21.522s9.636-21.522 21.522-21.522h70.832v-70.832c0-11.886 9.636-21.522 21.522-21.522s21.522 9.636 21.522 21.522v70.832h70.832c11.886 0 21.522 9.636 21.522 21.522 0.002 11.888-9.634 21.522-21.522 21.522z" />
<glyph unicode="&#xe925;" glyph-name="folder" d="M970.194 799.8h-386.304c-7.728 0-15.222 2.788-21.088 7.84l-70.864 61.132c-13.686 11.788-31.156 18.28-49.192 18.28h-253.9c-29.668 0-53.806-24.138-53.806-53.806v-71.914h-81.234c-29.668 0-53.806-24.138-53.806-53.806v-644.772c0-29.668 24.138-53.806 53.806-53.806h781.346c29.668 0 53.806 24.138 53.806 53.806v71.898h81.236c29.668 0 53.806 24.138 53.806 53.806v557.536c0 29.67-24.138 53.806-53.806 53.806zM845.914 62.754c0-5.934-4.828-10.762-10.762-10.762h-781.346c-5.934 0-10.762 4.828-10.762 10.762v442.39h802.868v-442.39zM845.914 548.188h-802.87v159.336c0 5.934 4.828 10.762 10.762 10.762h253.886c7.738 0 15.224-2.782 21.084-7.838l70.868-61.118c13.672-11.79 31.142-18.282 49.196-18.282h386.312c5.934 0 10.762-4.828 10.762-10.762v-72.098zM980.956 188.458c0-5.934-4.828-10.762-10.762-10.762h-81.236v442.592c0 29.668-24.138 53.806-53.806 53.806h-386.312c-7.738 0-15.228 2.782-21.086 7.836l-70.866 61.114c-13.672 11.792-31.142 18.286-49.196 18.286h-129.608v71.916c0 5.934 4.828 10.762 10.762 10.762h253.9c7.728 0 15.222-2.788 21.088-7.84l70.864-61.132c13.686-11.786 31.156-18.278 49.192-18.278h386.306c5.934 0 10.762-4.828 10.762-10.762v-557.538zM760.288 431.778h-128.89c-11.886 0-21.522-9.636-21.522-21.522 0-11.884 9.636-21.522 21.522-21.522h128.89c11.886 0 21.522 9.638 21.522 21.522 0 11.888-9.634 21.522-21.522 21.522zM760.288 328.472h-128.89c-11.886 0-21.522-9.638-21.522-21.522s9.636-21.522 21.522-21.522h128.89c11.886 0 21.522 9.638 21.522 21.522s-9.634 21.522-21.522 21.522z" />
<glyph unicode="&#xe926;" glyph-name="gamepad" d="M1018.548 363.405l-65.316 233.24c-12.612 45.068-43.782 83.062-85.52 104.244-41.74 21.184-90.812 23.912-134.64 7.478-32.044-12.026-59.256-33.166-78.676-61.116 0 0-0.092-0.074-0.28-0.074h-283.215c-0.17 0-0.26 0.060-0.268 0.060-19.414 27.962-46.618 49.102-78.682 61.134-43.83 16.422-92.906 13.7-134.642-7.484-41.728-21.18-72.896-59.174-85.508-104.238l-65.316-233.242c-21.578-77.026 12.106-151.444 80.096-176.956 17.112-6.416 35.096-9.444 53.026-9.444 58.328 0.002 116.002 32.052 140.608 83.71l31.34 65.588c19.312-25.872 50.084-41.924 83.484-41.924 45.55 0 85.47 29.716 99.118 72.188h36.604c13.646-42.472 53.554-72.188 99.096-72.188 33.418 0 64.204 16.070 83.512 41.96l31.416-65.6c15.84-33.252 43.374-59.162 77.528-72.952 34.156-13.792 71.964-14.268 106.464-1.336 34.492 12.94 62.664 38.16 79.326 71.012 16.658 32.844 20.368 70.466 10.444 105.94zM970.52 276.527c-11.88-23.418-31.96-41.396-56.54-50.618-24.588-9.214-51.54-8.876-75.888 0.954-24.346 9.832-43.972 28.298-55.282 52.040l-43.808 91.478c-4.824 10.074-15.156 16.174-26.32 15.61-11.122-0.59-20.71-7.746-24.424-18.23-8.74-24.668-32.21-41.242-58.398-41.242-29.544 0-55.106 21-60.776 49.936-2.528 12.894-13.884 22.254-27.002 22.254h-59.234c-13.12 0-24.476-9.36-27.006-22.258-5.67-28.932-31.242-49.932-60.8-49.932-26.182 0-49.648 16.568-58.394 41.228-3.718 10.486-13.31 17.64-24.436 18.226-11.15 0.598-21.498-5.55-26.314-15.632l-43.712-91.476c-22.77-47.798-88.562-72.542-140.802-52.956-47.768 17.922-70.1 69.79-54.318 126.134l65.318 233.248c9.58 34.23 32.308 61.938 64.002 78.024 17.954 9.112 37.22 13.702 56.6 13.702 14.836 0 29.742-2.688 44.172-8.098 24-9.008 44.356-24.814 58.864-45.712 7.9-11.374 20.94-18.164 34.88-18.164h283.213c13.938 0 26.974 6.784 34.87 18.15 14.53 20.91 34.896 36.722 58.886 45.726 33.28 12.476 69.068 10.488 100.772-5.6 31.698-16.086 54.43-43.796 64.010-78.028l65.314-233.24c7.078-25.288 4.43-52.108-7.446-75.524zM820.546 585.571c0-14.702-11.918-26.62-26.62-26.62s-26.62 11.918-26.62 26.62c0 14.702 11.918 26.62 26.62 26.62s26.62-11.918 26.62-26.62zM820.548 459.871c0-14.703-11.919-26.622-26.622-26.622s-26.622 11.919-26.622 26.622c0 14.703 11.919 26.622 26.622 26.622s26.622-11.919 26.622-26.622zM757.697 522.721c0-14.703-11.919-26.622-26.622-26.622s-26.622 11.919-26.622 26.622c0 14.703 11.919 26.622 26.622 26.622s26.622-11.919 26.622-26.622zM883.4 522.721c0-14.703-11.919-26.622-26.622-26.622s-26.622 11.919-26.622 26.622c0 14.703 11.919 26.622 26.622 26.622s26.622-11.919 26.622-26.622zM294.355 543.795h-37.306v37.306c0 11.636-9.432 21.070-21.070 21.070-11.636 0-21.070-9.432-21.070-21.070v-37.306h-37.306c-11.636 0-21.070-9.432-21.070-21.070 0-11.636 9.432-21.070 21.070-21.070h37.306v-37.306c0-11.636 9.432-21.070 21.070-21.070 11.636 0 21.070 9.432 21.070 21.070v37.306h37.306c11.636 0 21.070 9.432 21.070 21.070-0.002 11.638-9.434 21.070-21.070 21.070zM464.067 543.795h-23.048c-11.636 0-21.070-9.432-21.070-21.070 0-11.636 9.432-21.070 21.070-21.070h23.048c11.636 0 21.070 9.432 21.070 21.070-0.002 11.638-9.434 21.070-21.070 21.070zM583.987 543.795h-23.048c-11.636 0-21.070-9.432-21.070-21.070 0-11.636 9.432-21.070 21.070-21.070h23.048c11.636 0 21.070 9.432 21.070 21.070s-9.434 21.070-21.070 21.070zM395.041 430.923c-23.392 0-42.422-19.030-42.422-42.422 0-23.394 19.030-42.424 42.422-42.424 23.394 0 42.424 19.030 42.424 42.424-0.002 23.392-19.032 42.422-42.424 42.422zM395.041 377.681c-5.964 0-10.818 4.852-10.818 10.82 0 5.964 4.852 10.818 10.818 10.818s10.82-4.852 10.82-10.818c-0.002-5.966-4.854-10.82-10.82-10.82zM629.855 430.923c-23.392 0-42.422-19.030-42.422-42.422 0-23.394 19.030-42.424 42.422-42.424s42.422 19.030 42.422 42.424c0 23.392-19.030 42.422-42.422 42.422zM629.855 377.681c-5.964 0-10.818 4.852-10.818 10.82 0 5.964 4.852 10.818 10.818 10.818s10.818-4.852 10.818-10.818c0-5.966-4.852-10.82-10.818-10.82z" />
<glyph unicode="&#xe927;" glyph-name="heart" d="M944.16 797.76c-53.92 55.144-126.044 85.514-203.092 85.514-75.86 0-147.186-29.546-200.842-83.204l-27.692-27.71-27.718 27.718c-53.652 53.652-124.964 83.198-200.802 83.198-75.862 0-147.186-29.546-200.834-83.198-53.64-53.638-83.18-124.956-83.18-200.818s29.54-147.18 83.18-200.818l354.964-354.962c20.506-20.502 47.434-30.754 74.368-30.754 26.928 0.002 53.862 10.252 74.362 30.752l352.678 352.646c110.77 110.774 112.838 290.944 4.608 401.636zM902.366 433.308l-352.676-352.65c-20.502-20.5-53.862-20.5-74.362 0.002l-354.966 354.968c-43.708 43.706-67.778 101.818-67.778 163.634s24.070 119.928 67.778 163.636c43.716 43.718 101.836 67.794 163.652 67.794 61.792 0 119.9-24.076 163.618-67.794l27.732-27.732-42.466-42.498c-10.264-10.272-10.256-26.918 0.014-37.182 5.134-5.13 11.858-7.694 18.584-7.694 6.734 0 13.464 2.572 18.598 7.708l107.316 107.4c43.718 43.718 101.836 67.794 163.652 67.794 62.778 0 121.55-24.752 165.494-69.694 88.192-90.194 86.31-237.194-4.19-327.692zM932.58 611.194c-2.89 46.76-22.7 90.732-55.782 123.818-23.424 23.424-52.49 40.444-84.052 49.23-13.99 3.892-28.484-4.294-32.376-18.284-3.892-13.988 4.294-28.484 18.284-32.376 22.854-6.358 43.934-18.72 60.964-35.75 24.008-24.008 38.384-55.926 40.482-89.876 0.862-13.942 12.436-24.672 26.218-24.672 0.544 0 1.094 0.016 1.646 0.052 14.492 0.89 25.512 13.364 24.616 27.858z" />
<glyph unicode="&#xe928;" glyph-name="home" d="M1013.11 543.872l-485.392 355.394c-9.36 6.852-22.076 6.852-31.432 0l-485.396-355.394c-11.856-8.682-14.432-25.33-5.75-37.186s25.332-14.428 37.186-5.75l469.674 343.888 469.674-343.886c4.736-3.47 10.24-5.14 15.696-5.14 8.192 0 16.276 3.77 21.488 10.89 8.684 11.854 6.108 28.502-5.748 37.184zM884.492 494.914c-14.692 0-26.606-11.912-26.606-26.606v-423.498h-212.844v231.172c0 73.36-59.684 133.040-133.040 133.040s-133.040-59.684-133.040-133.040v-231.174h-212.846v423.498c0 14.694-11.914 26.606-26.606 26.606s-26.606-11.912-26.606-26.606v-450.106c0-14.694 11.914-26.606 26.606-26.606h266.058c13.992 0 25.442 10.81 26.502 24.534 0.064 0.622 0.104 1.302 0.104 2.072v257.78c0 44.018 35.81 79.828 79.828 79.828s79.828-35.812 79.828-79.828v-257.78c0-0.766 0.040-1.434 0.104-2.048 1.048-13.734 12.502-24.558 26.502-24.558h266.058c14.694 0 26.606 11.912 26.606 26.606v450.106c-0.002 14.696-11.914 26.608-26.608 26.608z" />
<glyph unicode="&#xe929;" glyph-name="id-card" d="M958.776 781.74h-893.552c-35.964 0-65.224-29.26-65.224-65.224v-537.032c0-35.964 29.26-65.224 65.224-65.224h893.552c35.964 0 65.224 29.26 65.224 65.224v537.032c0 35.964-29.26 65.224-65.224 65.224zM980.518 179.486c0-11.988-9.754-21.742-21.742-21.742h-893.552c-11.988 0-21.742 9.754-21.742 21.742v537.032c0 11.988 9.754 21.742 21.742 21.742h893.552c11.988 0 21.742-9.754 21.742-21.742v-537.032zM844.214 590.988h-233.33c-12.008 0-21.742-9.736-21.742-21.742 0-12.008 9.734-21.742 21.742-21.742h233.33c12.008 0 21.742 9.734 21.742 21.742 0 12.006-9.734 21.742-21.742 21.742zM844.214 469.742h-233.33c-12.008 0-21.742-9.734-21.742-21.742 0-12.006 9.734-21.742 21.742-21.742h233.33c12.008 0 21.742 9.736 21.742 21.742 0 12.008-9.734 21.742-21.742 21.742zM844.214 348.496h-233.33c-12.008 0-21.742-9.736-21.742-21.742s9.734-21.742 21.742-21.742h233.33c12.008 0 21.742 9.736 21.742 21.742s-9.734 21.742-21.742 21.742zM401.494 379.514c-0.44 0.030-40.232-1.628-50.98 41.42 14.522 11.43 26.708 27.312 35.416 46.28 0.644-0.064 1.288-0.144 1.928-0.144 5.928 0.002 11.668 2.702 15.44 7.548 18.258 23.45 27.752 53.898 26.736 85.736-2.112 66.008-48.034 118.044-104.624 118.656-1.548 0.062-2.926 0.022-4.040-0.018-0.026 0-0.052-0.002-0.080-0.002-13.73 5.95-28.194 8.738-43.1 8.248-31.864-1.018-61.1-16.802-82.316-44.446-20.33-26.486-30.892-60.95-29.738-97.054 0.196-6.108 0.68-11.74 1.456-17.076 2.106-15.372 6.346-30.108 12.602-43.794 3.006-6.578 9.398-10.964 16.622-11.396 1.966-0.126 3.896 0.076 5.752 0.522 8.854-21.946 22.232-40.208 38.412-52.958-10.534-42.976-50.56-41.498-50.998-41.526-42.778-1.4-77.152-36.61-77.152-79.72v-79.228c0-10.808 8.76-19.568 19.568-19.568h326.678c10.808 0 19.568 8.76 19.568 19.568v79.228c0.002 43.114-34.374 78.324-77.15 79.724zM206.606 532.344c-0.090 0.598-0.176 1.2-0.26 1.802-0.584 4.024-0.942 8.23-1.090 12.852-0.868 27.084 6.826 52.642 21.666 71.97 13.944 18.17 32.602 28.524 52.524 29.162 0.658 0.022 16.296 1.26 29.45-6.514 2.754-1.628 6.128-2.114 9.31-2.036 0.402 0.010 6.266 0.306 6.562 0.304 35.060-0.23 64.74-36.466 66.156-80.776 0.164-5.076-0.040-10.092-0.592-14.998-12.95 22.228-32.186 39.44-55.078 49.066-4.92 2.066-10.472 2.036-15.368-0.086-4.898-2.124-8.714-6.158-10.566-11.164-1.51-4.084-3.346-8.064-5.452-11.834-5.138-9.188-15.65-14.606-27.432-14.236-2.344 0.080-4.712 0.084-7.042 0.010-11.466-0.368-22.648-2.554-33.314-6.528-10.654-4.024-20.556-9.736-29.474-16.994zM233.876 503.942c4.958 3.664 10.406 6.374 15.952 8.75 10.112 4.336 23.776 4.1 25.254 4.048 25.206-0.856 48.216 10.938 61.020 31.030 9.984-7.65 18.23-17.954 23.982-30.164-6.060-43.914-33.39-77.322-64.402-77.322-27.668 0-52.5 26.17-61.806 63.658zM276.874 403.354c6.124-1.444 12.41-2.204 18.808-2.204 6.458 0 12.782 0.766 18.926 2.198 6.306-20.136 19.552-37.224 36.908-48.488-8.348-22.972-30.434-39.078-55.776-39.078s-47.428 16.106-55.778 39.080c17.36 11.266 30.606 28.354 36.912 48.492zM151.968 240.132v59.66c0 22.418 18.238 40.654 40.656 40.654 0.448 0 7.586 0.41 10.644 0.822 13.932-38.004 50.514-64.622 92.47-64.622s78.538 26.618 92.47 64.622c3.062-0.412 10.194-0.822 10.642-0.822 22.42 0 40.656-18.238 40.656-40.654v-59.66h-287.538z" />
<glyph unicode="&#xe92a;" glyph-name="idea" d="M114.637 627.688h-89.145c-13.682 0-24.772-11.090-24.772-24.772s11.090-24.772 24.772-24.772h89.143c13.684 0 24.774 11.090 24.774 24.772s-11.090 24.772-24.772 24.772zM998.508 627.688h-89.145c-13.68 0-24.772-11.090-24.772-24.772s11.092-24.772 24.772-24.772h89.145c13.68 0 24.772 11.090 24.772 24.772s-11.092 24.772-24.772 24.772zM216.695 307.614c-9.674 9.674-25.358 9.674-35.034 0l-64.84-64.84c-9.674-9.674-9.674-25.358 0-35.034 4.838-4.838 11.178-7.256 17.516-7.256s12.68 2.418 17.516 7.256l64.842 64.84c9.674 9.672 9.674 25.358 0 35.034zM861.829 952.744c-9.676 9.674-25.356 9.674-35.034 0l-63.064-63.064c-9.674-9.674-9.674-25.36 0-35.032 4.84-4.834 11.18-7.254 17.518-7.254 6.342 0 12.678 2.42 17.516 7.256l63.062 63.062c9.674 9.674 9.674 25.36 0.002 35.032zM260.236 889.716l-63.030 63.028c-9.674 9.67-25.36 9.67-35.034 0-9.674-9.674-9.674-25.36 0-35.034l63.030-63.030c4.838-4.836 11.178-7.256 17.516-7.256s12.68 2.42 17.516 7.256c9.674 9.674 9.674 25.36 0.002 35.036zM907.175 242.766l-64.6 64.606c-9.676 9.674-25.356 9.674-35.034-0.002-9.674-9.674-9.674-25.36 0-35.032l64.602-64.602c4.838-4.838 11.178-7.256 17.516-7.256 6.342 0 12.678 2.42 17.516 7.256 9.674 9.672 9.674 25.358 0 35.030zM512.001 892.728c-171.297 0-310.656-145.771-310.656-324.95 0-83.3 29.838-172.965 81.866-246.001 39.958-56.090 61.076-118.499 61.076-180.481v-155.751c0-27.318 22.226-49.544 49.544-49.544h236.339c27.318 0 49.544 22.226 49.544 49.544v155.751c0 61.98 21.118 124.391 61.072 180.481 52.028 73.034 81.868 162.701 81.868 246.001-0.004 179.179-139.363 324.95-310.656 324.95zM630.168-14.46h-236.339v32.402h118.171c13.682 0 24.774 11.090 24.774 24.772s-11.092 24.772-24.774 24.772h-118.171v32.4h236.345l0.028-114.343c-0.002-0.004-0.012-0.004-0.034-0.004zM477.261 447.715l-33.128 70.774h135.733l-33.124-70.774c-1.304-2.786-2.078-5.792-2.284-8.86l-19.21-289.424h-26.494l-19.21 289.424c-0.204 3.068-0.98 6.074-2.282 8.86zM700.434 350.52c-44.246-62.112-68.416-131.467-70.164-201.089h-55.368l18.682 281.5 47.662 101.831c3.592 7.672 3.014 16.65-1.534 23.798-4.546 7.146-12.43 11.476-20.902 11.476h-213.623c-8.472 0-16.354-4.33-20.902-11.476-4.546-7.146-5.126-16.124-1.534-23.796l47.664-101.831 18.682-281.5h-55.372c-1.748 69.624-25.916 138.977-70.164 201.089-45.508 63.884-72.676 145.103-72.676 217.257 0 151.861 117.135 275.406 261.112 275.406s261.112-123.545 261.112-275.406c0.004-72.158-27.164-153.377-72.672-217.259z" />
<glyph unicode="&#xe92b;" glyph-name="image" d="M978.792 870.288h-933.584c-24.928 0-45.208-20.28-45.208-45.208v-754.16c0-24.928 20.28-45.208 45.208-45.208h933.584c24.928 0 45.208 20.28 45.208 45.208v754.16c0 24.928-20.28 45.208-45.208 45.208zM978.792 70.92l-933.582-0.030c0 0-0.002 0.010-0.002 0.030v754.16h933.584v-754.16zM893.95 762.84h-763.902c-12.482 0-22.604-10.122-22.604-22.604v-499.6c0-12.482 10.122-22.602 22.604-22.602h763.9c12.482 0 22.604 10.122 22.604 22.604v499.598c0.002 12.482-10.12 22.604-22.602 22.604zM152.652 717.632h718.692v-382.668l-142.456 142.44c-8.824 8.824-23.136 8.824-31.966 0l-86.842-86.842-199.12 199.12c-8.826 8.82-23.138 8.824-31.966 0l-226.34-226.32v354.27zM152.652 263.244v36.19l242.324 242.3 278.488-278.49h-520.812zM871.348 263.242l-133.946 0.002-95.352 95.352 70.858 70.86 153.244-153.224c1.576-1.576 3.332-2.86 5.194-3.872v-9.118zM608.69 674.742c-47.12 0-85.458-38.336-85.458-85.458s38.336-85.458 85.458-85.458 85.458 38.336 85.458 85.458-38.338 85.458-85.458 85.458zM608.69 549.034c-22.196 0-40.25 18.054-40.25 40.25 0 22.194 18.056 40.248 40.25 40.248 22.192 0 40.248-18.054 40.248-40.248 0-22.196-18.054-40.25-40.248-40.25zM326.664 167.084h-196.616c-12.482 0-22.604-10.122-22.604-22.604 0-12.484 10.122-22.604 22.604-22.604h196.616c12.484 0 22.604 10.122 22.604 22.604s-10.12 22.604-22.604 22.604zM481.378 167.084h-51.57c-12.482 0-22.604-10.122-22.604-22.604s10.122-22.604 22.604-22.604h51.57c12.484 0 22.604 10.122 22.604 22.604s-10.122 22.604-22.604 22.604z" />
<glyph unicode="&#xe92c;" glyph-name="inbox" d="M624.922 294.532h-225.844c-17.022 0-30.868-13.846-30.868-30.868v-69.268c0-17.022 13.846-30.87 30.868-30.87h225.846c17.022 0 30.87 13.846 30.87 30.87v69.268c-0.004 17.020-13.85 30.868-30.872 30.868zM616.102 203.214h-208.206v51.628h208.206v-51.628zM1013.952 466.084l0.318 0.16-148.81 294.208c-12.030 23.78-36.050 38.55-62.692 38.55h-28.282v27.35c0 10.96-8.884 19.844-19.844 19.844h-485.282c-10.96 0-19.844-8.884-19.844-19.844v-27.35h-28.282c-26.642 0-50.662-14.77-62.692-38.55l-148.812-294.208 0.318-0.16c-6.374-10.498-10.048-22.81-10.048-35.962v-310.818c0-38.324 31.18-69.502 69.504-69.502h884.994c38.324 0 69.502 31.18 69.502 69.502v310.818c0 13.152-3.674 25.464-10.048 35.962zM774.484 754.904h28.282c9.918 0 18.86-5.502 23.342-14.358l121.86-240.924h-82.862v74.132c0 10.96-8.884 19.844-19.844 19.844h-24.55v106.454c0 10.96-8.884 19.844-19.844 19.844h-26.384v35.008zM825.42 553.912v-54.288h-104.718c-17.968 0-34.348-10.586-41.73-26.964l-28.592-63.42c-0.272-0.598-0.87-0.986-1.528-0.986h-273.702c-0.658 0-1.256 0.388-1.528 0.988l-28.59 63.416c-7.384 16.38-23.764 26.966-41.732 26.966h-104.718v54.288h626.838zM289.204 806.508h445.592v-86.61h-445.592v86.61zM781.024 680.21v-86.61h-538.048v86.61h538.048zM197.892 740.546c4.48 8.858 13.424 14.358 23.342 14.358h28.282v-35.006h-26.384c-10.96 0-19.844-8.884-19.844-19.844v-106.454h-24.55c-10.96 0-19.844-8.884-19.844-19.844v-74.132h-82.862l121.86 240.922zM954.498 93.902h-884.994c-14.008 0-25.406 11.398-25.406 25.402v310.818c0 14.006 11.396 25.402 25.406 25.402h233.796c0.656 0 1.258-0.388 1.53-0.99l28.59-63.416c7.384-16.38 23.762-26.962 41.73-26.962h273.7c17.968 0 34.348 10.584 41.73 26.96l28.592 63.42c0.272 0.6 0.87 0.988 1.528 0.988h233.796c14.008 0 25.402-11.398 25.402-25.402v-310.818h0.002c0.002-14.008-11.394-25.402-25.402-25.402z" />
<glyph unicode="&#xe92d;" glyph-name="information" d="M626.729 745.214c-19.83 22.3-50.754 35.090-84.844 35.090-60.882 0-115.302-41.568-121.318-92.72-2.698-23.396 4.562-46.094 20.442-63.91 19.512-21.892 50.16-34.446 84.096-34.446 62.46 0 116.080 40.73 122.072 92.666 2.7 22.968-4.56 45.454-20.448 63.32zM598.351 687.587c-3.074-26.67-36.62-49.2-73.25-49.2-19.636 0-37.356 6.726-47.398 17.996-6.614 7.42-9.406 16.022-8.312 25.516 3.086 26.236 36.96 49.252 72.492 49.252 19.772 0 37.758-6.954 48.116-18.598 4.548-5.114 9.692-13.588 8.352-24.966zM603.503 221.035c-6.144 4.122-20.524 13.766-8.916 80.726 0.298 1.46 1.464 6.858 3.274 15.246 4.122 19.114 11.794 54.688 20.132 94.358 0.020 0.088 0.040 0.18 0.056 0.268 8.512 42.874 1.774 80.38-19.474 108.466-19.182 25.356-49.552 40.9-85.508 43.764-53.172 4.254-108.796-27.478-125.836-58.714-7.878-13.84-4.106-25.080-1.136-30.578 3.68-6.8 9.048-10.612 12.97-13.394 6.042-4.288 20.186-14.326 6.754-81.146-1.256-6.112-19.998-101.402-22.476-114.93-0.018-0.090-0.032-0.182-0.050-0.272-7.384-43.080-0.082-80.73 22.304-107.918 36.048-43.78 90.916-41.678 93.064-41.678 51.138 0.002 102.256 31.764 117.82 62.158 7.514 14.042 3.454 25.178 0.334 30.596-3.85 6.7-9.32 10.37-13.312 13.048zM569.851 421.329c-8.298-39.484-15.938-74.914-20.046-93.958-2.794-12.948-3.358-15.578-3.558-16.656-0.014-0.086-0.032-0.174-0.046-0.264-12.48-71.728 0.15-103.12 18.026-120.682-4.884-4.358-11.574-9.064-19.856-13.336-16.288-8.404-34.33-12.75-49.524-11.948-22.134 1.182-39.716 9.168-50.836 23.098-12.95 16.216-17.2 40.006-12.292 68.798 2.672 14.558 21.44 109.872 22.228 113.664 0.014 0.084 0.032 0.164 0.050 0.248 14.356 71.376 2.548 103.088-14.86 121.112 4.996 4.228 11.81 8.758 20.2 12.81 16.502 7.97 34.664 11.848 49.822 10.644 22.096-1.76 39.458-10.204 50.212-24.42 12.522-16.55 16.148-40.448 10.48-69.11zM919.226 170.080c67.662 81.196 104.776 181.496 104.776 283.927 0 125.55-53.556 243.454-150.794 331.995-96.598 87.954-224.876 136.394-361.205 136.394s-264.611-48.44-361.209-136.396c-97.242-88.538-150.794-206.446-150.794-331.995s53.552-243.458 150.792-331.995c96.598-87.956 224.876-136.394 361.205-136.394 85.25 0 169.268 19.46 243.738 56.374l178.44-66.824c2.804-1.050 5.72-1.56 8.614-1.56 6.078 0 12.056 2.254 16.678 6.518 6.818 6.294 9.51 15.892 6.96 24.814l-47.2 165.142zM762.849 91.814c-6.538 2.45-13.808 2-20.002-1.232-69.88-36.512-149.706-55.812-230.848-55.812-255.212 0-462.843 188.066-462.843 419.233s207.63 419.239 462.841 419.239 462.845-188.068 462.845-419.233c0-96.19-35.030-186.68-101.304-261.691-5.552-6.282-7.518-14.966-5.212-23.026l37.44-130.996-142.918 53.518z" />
<glyph unicode="&#xe92e;" glyph-name="key" d="M669.948 960c-190.838 0-346.098-155.26-346.098-346.098 0-42.426 7.538-83.654 22.422-122.806l-330.928-330.952c-4.73-4.732-7.388-11.146-7.388-17.834v-181.088c0-13.93 11.292-25.222 25.222-25.222h149.232c6.682 0 13.090 2.65 17.82 7.372l50.29 50.214c4.74 4.732 7.402 11.154 7.402 17.85v61.752h61.674c13.93 0 25.222 11.292 25.222 25.222v24.72h24.722c13.928 0 25.222 11.292 25.222 25.222v54.272h54.272c6.688 0 13.102 2.658 17.834 7.388l80.242 80.242c39.158-14.898 80.392-22.446 122.834-22.446 190.838 0 346.098 155.26 346.098 346.098 0.002 190.834-155.256 346.094-346.094 346.094zM669.948 318.252c-41.284 0-81.212 8.338-118.678 24.786-9.688 4.252-20.598 1.912-27.742-5.050-0.078-0.074-0.154-0.134-0.23-0.212l-84.708-84.708h-69.046c-13.93 0-25.222-11.292-25.222-25.222v-54.272h-24.722c-13.928 0-25.222-11.292-25.222-25.222v-24.72h-61.676c-13.928 0-25.222-11.292-25.222-25.222v-76.514l-35.506-35.45h-113.57v35.642l308.282 308.28c8.866 8.866 8.866 23.238 0 32.102s-23.234 8.868-32.106 0l-276.176-276.178v45.568l335.392 335.416c0.076 0.076 0.134 0.146 0.204 0.22 6.964 7.138 9.312 18.048 5.060 27.744-16.432 37.464-24.76 77.39-24.76 118.66 0 163.024 132.63 295.654 295.654 295.654s295.65-132.628 295.65-295.654c-0.004-163.020-132.636-295.648-295.656-295.648zM775.276 813.712c-52.094 0-94.474-42.38-94.474-94.474s42.38-94.474 94.474-94.474 94.474 42.38 94.474 94.474-42.378 94.474-94.474 94.474zM775.276 675.208c-24.278 0-44.030 19.752-44.030 44.030s19.752 44.030 44.030 44.030 44.030-19.752 44.030-44.030-19.752-44.030-44.030-44.030z" />
<glyph unicode="&#xe92f;" glyph-name="laptop" d="M845.694 695.177h-667.385c-12.17 0-22.038-9.866-22.038-22.038v-332.849c0-12.172 9.868-22.038 22.038-22.038s22.038 9.866 22.038 22.038v310.813h623.309v-310.811c0-12.172 9.868-22.038 22.038-22.038s22.038 9.866 22.038 22.038v332.849c-0.002 12.17-9.87 22.036-22.038 22.036zM1004.168 261.595h-40.59v462.811c0 36.732-29.884 66.616-66.616 66.616h-769.922c-36.734 0-66.616-29.884-66.616-66.616v-462.811h-40.59c-10.954 0-19.834-8.878-19.834-19.834v-38.936c0-53.954 43.894-97.848 97.848-97.848h828.304c53.954 0 97.848 43.894 97.848 97.848v38.936c0.002 10.956-8.876 19.834-19.832 19.834zM104.498 724.406c0 12.428 10.114 22.542 22.542 22.542h769.918c12.432 0 22.542-10.112 22.542-22.542v-462.811h-298.401c-1.406 0.046-2.856-0.074-4.296-0.352-9.336-1.796-16.082-9.968-16.082-19.474 0-16.742-13.62-30.36-30.358-30.36h-116.722c-16.742 0-30.358 13.62-30.358 30.36 0 11.106-9.202 20.068-20.294 19.83h-298.491v462.807zM984.334 202.825v0c0-32.082-26.102-58.18-58.18-58.18h-828.306c-32.080 0-58.18 26.098-58.18 58.18v19.102h346.807c8.574-28.982 35.44-50.188 67.164-50.188h116.722c31.724 0 58.59 21.208 67.166 50.188h346.809v-19.102zM544.663 567.081c-8.608 8.606-22.558 8.606-31.168 0l-138.594-138.6c-8.606-8.606-8.606-22.56 0-31.166 4.304-4.304 9.944-6.454 15.582-6.454 5.64 0 11.278 2.154 15.582 6.454l138.598 138.598c8.606 8.606 8.606 22.56 0 31.168zM626.811 486.761c-8.608 8.606-22.558 8.606-31.166 0l-55.212-55.212c-8.606-8.606-8.606-22.56 0-31.168 4.304-4.304 9.944-6.454 15.582-6.454 5.642 0 11.278 2.15 15.582 6.454l55.212 55.212c8.608 8.606 8.608 22.56 0.002 31.168z" />
<glyph unicode="&#xe930;" glyph-name="layers" d="M1023.998 447.999c0 21.642-12.024 41.102-31.388 50.796l-76.244 38.122 76.244 38.12c0.002 0.002 0.008 0.004 0.008 0.004 19.36 9.69 31.384 29.152 31.384 50.794 0 21.638-12.026 41.1-31.388 50.794l-430.435 215.212c-31.424 15.698-68.94 15.698-100.37-0.002l-430.427-215.22c-19.356-9.686-31.382-29.146-31.382-50.786 0-21.642 12.024-41.102 31.388-50.796l76.242-38.12-76.252-38.126c-19.354-9.69-31.378-29.15-31.378-50.792s12.024-41.102 31.388-50.794l76.242-38.122-76.236-38.118c-19.354-9.67-31.386-29.124-31.394-50.768-0.008-21.656 12.016-41.128 31.388-50.824l430.429-215.216c15.712-7.85 32.942-11.772 50.18-11.772s34.476 3.926 50.19 11.774l430.429 215.216c19.364 9.69 31.39 29.164 31.382 50.82-0.008 21.644-12.040 41.098-31.388 50.762l-76.244 38.122 76.252 38.126c19.356 9.692 31.38 29.152 31.38 50.794zM52.45 617.139c-4.678 2.342-5.374 6.452-5.374 8.692s0.7 6.35 5.366 8.686l430.415 215.208c9.126 4.56 19.136 6.836 29.146 6.836 10.006 0 20.014-2.278 29.134-6.834l430.413-215.206c4.674-2.34 5.374-6.45 5.374-8.69s-0.696-6.35-5.374-8.692l-430.407-215.202c-18.25-9.116-40.038-9.116-58.278-0.002l-430.415 215.204zM971.564 278.851c4.66-2.328 5.358-6.43 5.358-8.672 0.002-2.246-0.696-6.364-5.366-8.7l-430.415-215.208c-18.25-9.116-40.038-9.118-58.278-0.002l-430.413 215.208c-4.678 2.342-5.376 6.458-5.374 8.704 0 2.238 0.696 6.342 5.366 8.674l107.824 53.912 301.551-150.774c15.712-7.85 32.942-11.772 50.178-11.772 17.238 0 34.476 3.926 50.19 11.774l301.543 150.772 107.836-53.916zM971.554 439.311l-430.413-215.208c-18.25-9.116-40.038-9.118-58.278-0.002l-430.413 215.206c-4.678 2.34-5.374 6.45-5.374 8.69 0 2.244 0.696 6.35 5.366 8.688l107.824 53.912 301.551-150.774c15.71-7.85 32.944-11.772 50.178-11.772s34.474 3.924 50.188 11.776l301.547 150.772 107.816-53.908c4.678-2.342 5.374-6.45 5.374-8.692 0.002-2.24-0.696-6.35-5.366-8.688z" />
<glyph unicode="&#xe931;" glyph-name="like" d="M255.008 170.78c0-19.111-15.493-34.604-34.604-34.604s-34.604 15.493-34.604 34.604c0 19.111 15.493 34.604 34.604 34.604s34.604-15.493 34.604-34.604zM1003.236 357.455c0 17.006-5.268 32.8-14.242 45.858 21.132 14.67 35.006 39.094 35.006 66.708 0 44.756-36.412 81.17-81.166 81.17h-213.39l13.516 30.304c19.76 44.312 29.832 91.384 29.936 139.902 0 0 0.122 59.214 0.122 59.546 0 45.998-37.422 83.422-83.422 83.422-34.192 0-64.564-20.482-77.376-52.184-0.564-1.398-19.978-58.592-19.978-58.592-17.506-50.858-48.566-95.978-89.816-130.49l-98.984-82.806h-57.224v26.122c0 27.442-22.326 49.77-49.77 49.77h-246.68c-27.444 0-49.77-22.326-49.77-49.77v-485.011c0-27.442 22.326-49.77 49.77-49.77h246.676c27.442 0 49.77 22.326 49.77 49.77v38.96h31.242l31.018-14.994c73.376-35.468 155.236-54.216 236.734-54.216h235.332c44.756 0 81.17 36.412 81.17 81.166 0 17.006-5.268 32.8-14.242 45.858 21.132 14.67 35.006 39.094 35.006 66.708 0 17.006-5.268 32.8-14.242 45.858 21.132 14.67 35.004 39.096 35.004 66.712zM296.445 81.404h-246.676v485.013h246.676l0.032-485.011c0 0-0.010-0.002-0.032-0.002zM942.834 438.619h-35.412c-13.744 0-24.884-11.14-24.884-24.884s11.14-24.884 24.884-24.884h14.648c17.314 0 31.4-14.084 31.4-31.4s-14.084-31.4-31.4-31.4h-35.408c-13.744 0-24.884-11.14-24.884-24.884s11.14-24.884 24.884-24.884h14.648c17.312 0 31.4-14.084 31.4-31.4 0-17.312-14.084-31.398-31.4-31.398h-35.408c-13.744 0-24.884-11.14-24.884-24.884s11.14-24.884 24.884-24.884h14.648c17.314 0 31.4-14.088 31.4-31.4-0.004-17.308-14.090-31.392-31.404-31.392h-235.332c-74.042 0-148.412 17.032-215.074 49.254l-36.15 17.474c-3.376 1.632-7.080 2.482-10.83 2.482h-36.942v320.391h66.26c5.838 0 11.49 2.052 15.966 5.798l105.914 88.604c48.2 40.32 84.488 93.042 104.942 152.464 0 0 19.8 57.646 19.916 58.038 5.58 11.704 17.28 19.164 30.382 19.164 18.556 0 33.652-15.096 33.652-33.652 0-0.33-0.122-59.442-0.122-59.442-0.088-41.528-8.708-81.812-25.622-119.738l-28.986-65.004c-2.54-5.698-2.748-11.836-1.060-17.37 0.142-0.49 5.516-17.972 23.892-17.972h251.486c17.312 0 31.398-14.084 31.398-31.4-0.006-17.312-14.090-31.398-31.402-31.398z" />
<glyph unicode="&#xe932;" glyph-name="line-chart" d="M915.272 690.639c-59.952 0-108.726-48.774-108.726-108.726 0-21.866 6.51-42.228 17.662-59.294l-117.466-117.466c-17.068 11.152-37.43 17.662-59.296 17.662-22.658 0-43.716-6.976-61.152-18.882l-118.676 118.694c11.15 17.066 17.656 37.426 17.656 59.288 0 59.952-48.774 108.726-108.726 108.726s-108.726-48.774-108.726-108.726c0-21.862 6.508-42.216 17.654-59.282l-117.47-117.472c-17.064 11.148-37.422 17.654-59.282 17.654-59.952 0-108.726-48.776-108.726-108.728s48.774-108.726 108.726-108.726c59.952 0 108.726 48.774 108.726 108.726 0 21.866-6.51 42.228-17.662 59.296l117.466 117.466c17.068-11.152 37.43-17.662 59.296-17.662 21.864 0 42.226 6.51 59.292 17.662l119.332-119.348c-10.412-16.676-16.452-36.348-16.452-57.412 0-59.952 48.774-108.726 108.726-108.726s108.726 48.774 108.726 108.726c0 21.862-6.508 42.218-17.654 59.282l117.472 117.472c17.066-11.148 37.424-17.654 59.282-17.654 59.952 0 108.726 48.774 108.726 108.726 0 59.954-48.776 108.724-108.728 108.724zM108.726 250.303c-35.172 0-63.786 28.614-63.786 63.784 0 35.172 28.614 63.786 63.786 63.786 35.17 0 63.786-28.614 63.786-63.786 0-35.17-28.614-63.784-63.786-63.784zM376.551 518.129c-35.17 0-63.786 28.614-63.786 63.786 0 35.17 28.614 63.786 63.786 63.786s63.786-28.614 63.786-63.786c0-35.172-28.614-63.786-63.786-63.786zM647.447 250.303c-35.17 0-63.786 28.614-63.786 63.786s28.614 63.786 63.786 63.786c35.17 0 63.786-28.614 63.786-63.786-0.002-35.172-28.616-63.786-63.786-63.786zM915.272 518.129c-35.17 0-63.786 28.614-63.786 63.786 0 35.17 28.614 63.786 63.786 63.786 35.17 0 63.786-28.614 63.786-63.786s-28.616-63.786-63.786-63.786zM353.547 414.567c-8.776 8.774-23.002 8.774-31.778 0l-45.708-45.708c-8.774-8.774-8.774-23.002 0.002-31.778 4.388-4.388 10.138-6.582 15.888-6.582s11.502 2.196 15.888 6.582l45.708 45.708c8.778 8.774 8.778 23.004 0 31.778zM747.923 558.123c-8.776 8.774-23 8.774-31.78-0.002l-45.708-45.708c-8.774-8.774-8.774-23.002 0-31.778 4.39-4.386 10.14-6.58 15.89-6.58 5.752 0 11.5 2.196 15.888 6.582l45.708 45.708c8.776 8.776 8.776 23.004 0.002 31.778z" />
<glyph unicode="&#xe933;" glyph-name="loupe" d="M915.204 851.29c-144.834 144.832-380.49 144.832-525.322 0-70.162-70.158-108.798-163.442-108.798-262.662 0-90.386 32.078-175.834 90.826-243.376l-44.238-44.238-45.084 45.084c-4.94 4.94-11.642 7.716-18.628 7.716s-13.688-2.776-18.628-7.716l-211.222-211.224c-21.996-21.992-34.11-51.234-34.11-82.34 0-31.104 12.114-60.348 34.106-82.34 21.996-21.996 51.238-34.108 82.34-34.108s60.348 12.114 82.34 34.106l211.224 211.22c4.94 4.94 7.716 11.642 7.716 18.628s-2.776 13.688-7.716 18.628l-45.084 45.084 44.252 44.252c69.586-60.43 156.468-90.662 243.364-90.662 95.122 0 190.246 36.208 262.662 108.622 70.156 70.16 108.796 163.44 108.796 262.66 0 99.226-38.636 192.508-108.796 262.666zM161.53 7.45c-12.042-12.042-28.052-18.674-45.084-18.674-17.030 0-33.042 6.634-45.084 18.676-12.040 12.040-18.674 28.052-18.674 45.080s6.634 33.042 18.676 45.084l117.868 117.868 90.168-90.164-117.87-117.87zM316.66 162.578l-90.168 90.168 37.468 37.468 90.168-90.17-37.468-37.466zM877.946 363.224c-124.288-124.292-326.518-124.292-450.806 0-60.208 60.208-93.366 140.256-93.366 225.404s33.158 165.196 93.366 225.402c62.144 62.144 143.774 93.218 225.404 93.218 81.628 0 163.26-31.070 225.404-93.218 60.208-60.206 93.366-140.256 93.366-225.402s-33.16-165.196-93.368-225.404zM834.468 770.558c-100.316 100.312-263.538 100.316-363.854 0-100.312-100.316-100.312-263.538 0.002-363.854 50.158-50.154 116.040-75.234 181.926-75.234s131.77 25.080 181.928 75.234v0.002c100.312 100.312 100.312 263.536-0.002 363.852zM797.21 443.96c-79.772-79.772-209.566-79.772-289.338-0.002-79.772 79.772-79.772 209.568-0.002 289.34 39.89 39.892 92.272 59.828 144.672 59.828 52.386 0 104.788-19.948 144.668-59.828 79.772-79.77 79.772-209.566 0-289.338zM750.642 686.728c-54.096 54.090-142.106 54.090-196.2 0-10.288-10.288-10.288-26.968 0-37.26 10.288-10.288 26.968-10.288 37.26 0 33.544 33.548 88.136 33.548 121.684 0 5.146-5.146 11.886-7.716 18.628-7.716s13.486 2.572 18.628 7.716c10.288 10.288 10.288 26.97 0 37.26z" />
<glyph unicode="&#xe934;" glyph-name="mail" d="M1023.276 549.888c-0.016 12.292-4.818 23.844-13.524 32.524-8.686 8.668-20.226 13.436-32.492 13.436-0.022 0-0.046 0-0.066 0l-931.236-1.28c-12.292-0.018-23.84-4.82-32.522-13.526-8.68-8.702-13.452-20.268-13.434-32.558l0.724-526.246c0.032-25.354 20.67-45.96 46.026-45.96 0.018 0 0.042 0 0.058 0l931.234 1.282c12.294 0.016 23.844 4.818 32.526 13.524 8.68 8.702 13.452 20.27 13.434 32.56l-0.728 526.244zM926.68 549.758l-414.64-288.256-415.468 287.116 830.108 1.14zM684.908 215.322l247.3-191.802-841.096-1.158 248.772 192.962c10.042 7.788 11.866 22.242 4.080 32.284-7.788 10.042-22.242 11.866-32.284 4.078l-264.97-205.524-0.66 481.428 452.946-313.016c3.938-2.722 8.51-4.080 13.084-4.080 4.592 0 9.186 1.374 13.134 4.116l452.072 314.278 0.692-482.63-264.862 205.43c-10.042 7.784-24.494 5.962-32.284-4.080-7.792-10.042-5.966-24.496 4.076-32.286zM621.018 835.28l-83.702 74.774c-14.43 12.888-36.2 12.888-50.632 0l-83.702-74.774c-9.478-8.468-10.298-23.014-1.832-32.49 8.468-9.48 23.010-10.294 32.49-1.834l55.348 49.446v-177.346c0-12.706 10.302-23.010 23.010-23.010 12.706 0 23.010 10.304 23.010 23.010v177.346l55.348-49.444c4.388-3.92 9.864-5.85 15.32-5.85 6.326 0 12.624 2.594 17.17 7.68 8.468 9.476 7.65 24.024-1.828 32.492z" />
<glyph unicode="&#xe935;" glyph-name="map" d="M144.867 765.893c-32.668 0-59.248-26.58-59.248-59.248 0-32.67 26.58-59.25 59.248-59.25s59.248 26.58 59.248 59.25c0 32.668-26.58 59.248-59.248 59.248zM144.867 690.019c-9.168 0-16.626 7.46-16.626 16.628s7.458 16.626 16.626 16.626c9.168 0 16.626-7.456 16.626-16.626s-7.46-16.628-16.626-16.628zM983.622 584.765v150.473c0 29.13-23.706 52.86-52.864 52.894l-666.323 0.334c-5.206 7.572-11.158 14.718-17.852 21.32-27.816 27.434-64.638 42.282-103.766 41.704-78.284-1.084-142.349-65.672-142.815-143.971-0.136-23.204 5.348-46.314 15.86-66.84 0.208-0.408 34.658-58.172 34.658-58.172v-484.694c0-29.154 23.72-52.874 52.864-52.874l827.323-0.448c29.178 0 52.916 23.73 52.916 52.896v279.967c0 0 24.306 40.762 24.514 41.172 10.376 20.258 15.862 43.068 15.862 65.964-0.002 37.738-14.332 73.174-40.376 100.276zM837.907 745.557l-102.896-102.896-103 103 205.895-0.104zM707.883 615.535l-179.329-179.329-65.568 65.568c-0.004 0.004-0.006 0.006-0.010 0.010s-0.006 0.006-0.010 0.010l-49.184 49.184 179.329 179.327 114.772-114.77zM350.773 362.448l98.644 98.644 126.734-126.734-98.644-98.644-126.734 126.734zM374.817 284.157l-110.654-110.652-88.664 88.666 110.652 110.652 88.666-88.666zM273.863 640.679c10.376 20.258 15.862 43.068 15.862 65.964 0 13.45-1.856 26.596-5.372 39.192l269.905-0.136-167.597-167.597-60.014 60.014c-7.492 7.488-19.634 7.488-27.126 0-7.49-7.49-7.49-19.636 0-27.128l122.772-122.772-98.644-98.644-79.892 79.892c-7.49 7.488-19.634 7.488-27.126 0-7.49-7.492-7.49-19.636 0-27.128l42.392-42.392-165.879-165.877v277.005l15.136-25.368c7.762-13.008 21.438-20.774 36.584-20.774s28.822 7.766 36.584 20.772c-0.002 0.002 92.208 154.569 92.416 154.977zM53.5 660.697c-7.314 14.502-10.974 30.164-10.876 46.568 0.328 55.26 45.538 100.842 100.78 101.608 27.634 0.34 53.616-10.072 73.248-29.434 6.76-6.668 12.448-14.118 17.036-22.13 0.198-0.382 0.418-0.748 0.64-1.114 8.33-14.984 12.776-31.912 12.776-49.554 0-16.182-3.66-31.636-10.878-45.948l-91.34-153.151-91.386 153.155zM103.396 87.561c-5.652 0-10.25 4.596-10.25 10.25v82.004l55.228 55.228 147.585-147.587-192.563 0.106zM350.239 87.429l-58.952 58.952 110.654 110.652 169.721-169.723-221.423 0.12zM504.632 208.591l98.644 98.644 71.632-71.632-98.644-98.644-71.632 71.632zM625.942 87.279l-22.554 22.554 98.644 98.644 121.306-121.306-197.395 0.108zM930.718 87.115l-53.1 0.028-148.459 148.459 44.682 44.682c7.492 7.492 7.492 19.636 0 27.128-7.49 7.488-19.634 7.488-27.126 0l-44.684-44.684-85.184 85.184c-0.004 0.004-0.006 0.006-0.010 0.010s-0.006 0.006-0.010 0.010l-61.146 61.148 72.708 72.708 37.676-37.676c4.162-4.16 9.616-6.242 15.070-6.242s10.91 2.082 15.070 6.242c8.322 8.322 8.322 21.816 0 30.142l-37.676 37.676 233.599 233.599 38.594-0.020c5.664-0.006 10.274-4.614 10.274-10.27v-119.682c-19.694 9.326-41.412 14.116-63.912 13.776-78.284-1.086-142.347-65.67-142.811-143.971-0.136-23.204 5.348-46.314 15.86-66.84 0.208-0.406 92.418-154.975 92.418-154.975 7.762-13.008 21.438-20.774 36.586-20.774 15.146 0 28.822 7.764 36.582 20.772l25.28 42.37v-208.529h0.006c-0.006-5.662-4.624-10.27-10.286-10.27zM970.496 438.542l-26.898-45.1c-0.008-0.018-0.022-0.034-0.030-0.052l-64.414-108.002-91.382 153.155c-7.314 14.502-10.974 30.164-10.876 46.568 0.326 55.26 45.538 100.84 100.782 101.606 27.58 0.376 53.614-10.070 73.244-29.432 19.636-19.366 30.452-45.22 30.452-72.798 0-16.182-3.66-31.636-10.878-45.946zM879.139 543.736c-32.67 0-59.248-26.58-59.248-59.25 0-32.668 26.58-59.248 59.248-59.248 32.67 0 59.248 26.58 59.248 59.248 0 32.674-26.578 59.25-59.248 59.25zM879.139 467.864c-9.168 0-16.626 7.456-16.626 16.626s7.456 16.628 16.626 16.628 16.626-7.46 16.626-16.628-7.458-16.626-16.626-16.626z" />
<glyph unicode="&#xe936;" glyph-name="medal" d="M1017.592 774.39l-154.92 154.912c-4.104 4.102-9.668 6.408-15.472 6.408h-670.4c-5.802 0-11.37-2.306-15.472-6.408l-154.918-154.912c-7.334-7.336-8.512-18.812-2.818-27.484l324.062-493.48c-12.942-26.818-20.2-56.876-20.2-88.596 0-112.784 91.758-204.542 204.54-204.542s204.54 91.76 204.54 204.542c0 31.716-7.256 61.768-20.194 88.584l324.072 493.492c5.692 8.672 4.514 20.148-2.82 27.484zM185.862 891.948h652.274l111.158-111.16h-154.906c-0.154 0-0.306 0.004-0.46 0h-563.854c-0.16 0.004-0.32 0-0.476 0h-154.892l111.156 111.16zM753.81 737.030l-241.472-367.664c-0.114 0-0.228 0.004-0.344 0.004-0.112 0-0.22-0.004-0.33-0.004l-241.476 367.664h483.622zM62.432 737.030h155.402l245.348-373.558c-43.798-10.766-82.090-35.668-109.748-69.58l-291.002 443.138zM511.994 4.046c-88.654 0-160.778 72.126-160.778 160.782s72.126 160.778 160.778 160.778c88.654 0 160.78-72.126 160.78-160.78s-72.126-160.78-160.78-160.78zM670.56 293.88c-27.654 33.914-65.948 58.818-109.744 69.586l245.348 373.564h155.402l-291.006-443.15zM519.426 244.908h-34.762c-12.084 0-21.88-9.798-21.88-21.88s9.796-21.88 21.88-21.88h12.88v-118.322c0-12.082 9.796-21.88 21.88-21.88s21.88 9.798 21.88 21.88v140.202c0.002 12.084-9.794 21.88-21.878 21.88z" />
<glyph unicode="&#xe937;" glyph-name="megaphone" d="M899.022 684.704v164.76c0 18.144-9.336 34.454-24.974 43.628-15.698 9.21-34.58 9.4-50.502 0.494-152.048-85.032-317.45-134.69-491.61-147.604-1.334-0.098-158.744-0.786-158.744-0.786-39.534 0-72.21-29.846-76.732-68.182h-32.31c-35.37 0-64.15-28.776-64.15-64.148v-140.936c0-35.372 28.78-64.15 64.15-64.15h32.306c3.256-27.59 21.088-50.766 45.57-61.598l114.97-317.296c7.186-19.75 26.134-33.022 47.156-33.022h115.374c16.356 0 31.72 7.998 41.102 21.394 9.382 13.4 11.644 30.574 6.060 45.92l-98.778 272.474c160.964-16.722 314.078-65.202 455.634-144.366 7.81-4.368 16.332-6.546 24.84-6.546 8.834 0.002 17.66 2.35 25.658 7.042 15.638 9.176 24.978 25.484 24.978 43.632v164.76c70.402 9.12 124.98 69.418 124.98 142.264 0 72.848-54.578 133.148-124.978 142.266zM95.902 457.256h-31.752c-8.094 0-14.676 6.582-14.676 14.676v140.934c0 8.088 6.582 14.674 14.676 14.674h31.752v-170.284zM161.86 391.51c-9.7 4.348-16.484 14.078-16.484 25.376v251.026h0.002c0 15.334 12.478 27.81 27.812 27.81h134.666v-306.648c0 0-135.84 0.052-136.426 0.088-4.962 0.574-6.006 0.83-9.57 2.348zM420.182 46.294c0.080-0.202 0.132-0.346-0.082-0.648-0.21-0.302-0.366-0.302-0.576-0.302h-115.374c-0.294 0-0.564 0.186-0.654 0.43l-106.466 293.828h116.822l106.33-293.308zM849.548 235.412c0-0.358 0-0.644-0.534-0.958-0.636-0.368-1.016-0.158-1.32 0.012-152.068 85.040-316.938 136.090-490.364 151.92v312.080c173.44 15.854 338.31 66.908 490.358 151.94 0.312 0.17 0.698 0.38 1.326 0.012 0.534-0.314 0.534-0.596 0.534-0.954v-614.052zM899.022 450.254v184.37c43.006-8.628 75.504-46.678 75.504-92.184 0-45.508-32.5-83.56-75.504-92.186z" />
</font>
</defs>
</svg>
